ML
     
  Уважаемый Гость!
Вы можете поддержать проект и зарегистрироваться у наших партнеров - онлайн-стратегия MyLands. При регистрации в игре Вы получите код, который сможете активировать после регистрации на pirat.ca и получить 1000 дублонов.

Ваш код:
11f49771fdf057c9d51610e4a0925c3b46ddb655
 
     

Версия полковника Зорина (Андрей Ладынин) [1978 г., детектив, DVDRip]

Ответить на тему
 
Автор
Сообщение

Пост 19-Сен-2014 15:14

[Q] 

Мархуз

-Версия полковника Зорина-- Производство: СССР, Мосфильм
Режиссер: Андрей Ладынин
Жанр: детектив
Год выпуска: 1978 г.
Продолжительность: 01:24:16
В ролях: Всеволод Санаев, Борис Иванов, Иван Воронов, Владимир Тихонов, Петр Вельяминов, Вилныс Бекерис, Елена Драпеко, Анатолий Веденкин, Алевтина Евдокимова, Шавкат Газиев, Валентина Виолкова, Александр Андрусенко, Александр Александров, Владимир Приходько-Описание: В городе ограблен ювелирный магазин. А вскоре в пригороде обнаружили труп мужчины, в носке которого был бриллиантовый перстень. Расследование преступления поручили опытному следователю полковнику Зорину...-Качество видео: DVDRip
Контейнер: AVI
Видео кодек: DivX
Аудио кодек: AC3
Видео: 704x304; 2119 kbps; 25 fps; 0.396 bit/pixel
Аудио: 192 kbps; 2 ch; 48 kHz
Cубтитры: отсутствуют
General
Complete name : E:\Torrent\Versija_polkovnika_Zorina_[Pirat.ca].torrent.avi
Format : AVI
Format/Info : Audio Video Interleave
File size : 1.37 GiB
Duration : 1h 24mn
Overall bit rate : 2 322 Kbps
Writing application : VirtualDubModRus 1.5.10.2 (build 2542/release)
Writing library : VirtualDubMod build 2542/release
Video
ID : 0
Format : MPEG-4 Visual
Format settings, BVOP : Yes
Format settings, QPel : No
Format settings, GMC : No warppoints
Format settings, Matrix : Default (H.263)
Codec ID : DX50
Codec ID/Hint : DivX 5
Duration : 1h 24mn
Bit rate : 2 120 Kbps
Width : 704 pixels
Height : 304 pixels
Display aspect ratio : 2.35:1
Frame rate : 25.000 fps
Color space : YUV
Chroma subsampling : 4:2:0
Bit depth : 8 bits
Scan type : Progressive
Compression mode : Lossy
Bits/(Pixel*Frame) : 0.396
Stream size : 1.25 GiB (91%)
Writing library : DivX 6.8.3-6.8.4 (UTC 2008-06-07)
Audio
ID : 1
Format : AC-3
Format/Info : Audio Coding 3
Mode extension : CM (complete main)
Format settings, Endianness : Big
Codec ID : 2000
Duration : 1h 24mn
Bit rate mode : Constant
Bit rate : 192 Kbps
Channel(s) : 2 channels
Channel positions : Front: L R
Sampling rate : 48.0 KHz
Bit depth : 16 bits
Compression mode : Lossy
Stream size : 116 MiB (8%)
Alignment : Aligned on interleaves
Interleave, duration : 40 ms (1.00 video frame)
Interleave, preload duration : 512 ms
Раздача с 14.00 до 2.30 (время московское)
Download / Скачать

Хотите скачать бесплатно? Зарегистрируйтесь на сайте (ссылка на регистрацию). Pirat.ca - самый быстрый торрент трекер в рунете!

Как скачивать  ·   Что такое торрент  ·   Рейтинг и ограничения

Пост 19-Сен-2014 17:11 (спустя 1 час 57 минут)

Топик был перенесен из форума Наше кино (Трюм) в форум Золотая коллекция
kugesan
 

R_O_Z_A

Морской Волк

Пост 26-Фев-2015 23:14 (спустя 5 месяцев 7 дней)

[Q] 

На любителя Спасибо!!!
[Профиль]  [ЛС] 
Показать сообщения:    
Ответить на тему

Текущее время: Сегодня 03:12

Часовой пояс: GMT + 4



Вы не можете начинать темы
Вы не можете отвечать на сообщения
Вы не можете редактировать свои сообщения
Вы не можете удалять свои сообщения
Вы не можете голосовать в опросах
Вы не можете прикреплять файлы к сообщениям
Вы не можете скачивать файлы

▼ Вниз