ML
     
  Уважаемый Гость!
Вы можете поддержать проект и зарегистрироваться у наших партнеров - онлайн-стратегия MyLands. При регистрации в игре Вы получите код, который сможете активировать после регистрации на pirat.ca и получить 1000 дублонов.

Ваш код:
11f49771fdf057c9d51610e4a0925c3b46ddb655
 
     

Анискин и Фантомас (2 серии) (Михаил Жаров, Владимир Рапопорт) [1973 г., детектив, семейный, DVDRip]

Ответить на тему
 
Автор
Сообщение

Пост 21-Сен-2014 14:01

[Q] 

Мархуз

-Анискин и Фантомас (2 серии)-- Производство: СССР, Киностудия им. М. Горького
Режиссер: Михаил Жаров, Владимир Рапопорт
Жанр: детектив, семейный
Год выпуска: 1973 г.
Продолжительность: 02:08:54
В ролях: Михаил Жаров, Татьяна Пельтцер, Лидия Смирнова, Роман Ткачук, Валентин Абрамов, Валерий Носик, Олег Балакин, Алексей Сафонов, Виктор Байков, Евгений Буренков, Валентина Березуцкая, Валентина Ананьина, Анна Жарова, Игорь Шмаков, Петя Шапаров, Маргарита Фомина, Алексей Чернов, Борис Белов, Лариса Блинова, Юрий Григорьев, Клавдия Козлёнкова, Надежда Самсонова, Наталия Трисветова, Рома Мадянов, Артур Нищёнкин-Описание: Злоумышленники в черных масках-чулках ограбили сельского кассира. Расследование ведет старший лейтенант Анискин. Он полагает, что местные дети чересчур увлеклись игрой во французского злодея Фантомаса. Но кто задумал ограбление, кто подбил детей на это преступление в сибирской глубинке, где все друг друга знают?..-Качество видео: DVDRip
Контейнер: AVI
Видео кодек: DivX
Аудио кодек: MP3
Видео: 704x528; 2074 kbps; 25 fps; 0.223 bit/pixel
Аудио: 192 kbps; 2 ch; 48 kHz
Cубтитры: отсутствуют
1 серия:
General
Complete name : E:\Torrent\Aniskin_i_Fantomas_[Pirat.ca].torrent\1 серия.avi
Format : AVI
Format/Info : Audio Video Interleave
File size : 1.01 GiB
Duration : 1h 3mn
Overall bit rate : 2 276 Kbps
Writing application : VirtualDubModRus 1.5.10.2 (build 2542/release)
Writing library : VirtualDubMod build 2542/release
Video
ID : 0
Format : MPEG-4 Visual
Format settings, BVOP : 1
Format settings, QPel : No
Format settings, GMC : No warppoints
Format settings, Matrix : Default (H.263)
Muxing mode : Packed bitstream
Codec ID : DX50
Codec ID/Hint : DivX 5
Duration : 1h 3mn
Bit rate : 2 074 Kbps
Width : 704 pixels
Height : 528 pixels
Display aspect ratio : 4:3
Frame rate : 25.000 fps
Color space : YUV
Chroma subsampling : 4:2:0
Bit depth : 8 bits
Scan type : Progressive
Compression mode : Lossy
Bits/(Pixel*Frame) : 0.223
Stream size : 946 MiB (91%)
Writing library : DivX 6.8.3-6.8.4 (UTC 2008-06-07)
Audio
ID : 1
Format : MPEG Audio
Format version : Version 1
Format profile : Layer 3
Mode : Joint stereo
Mode extension : MS Stereo
Codec ID : 55
Codec ID/Hint : MP3
Duration : 1h 3mn
Bit rate mode : Constant
Bit rate : 192 Kbps
Channel(s) : 2 channels
Sampling rate : 48.0 KHz
Compression mode : Lossy
Stream size : 87.6 MiB (8%)
Alignment : Aligned on interleaves
Interleave, duration : 40 ms (1.00 video frame)
Interleave, preload duration : 504 ms
Writing library : LAME3.97
Encoding settings : -m j -V 4 -q 1 -b 192
2 серия:
General
Complete name : E:\Torrent\Aniskin_i_Fantomas_[Pirat.ca].torrent\2 серия.avi
Format : AVI
Format/Info : Audio Video Interleave
File size : 1.04 GiB
Duration : 1h 5mn
Overall bit rate : 2 276 Kbps
Writing application : VirtualDubModRus 1.5.10.2 (build 2542/release)
Writing library : VirtualDubMod build 2542/release
Video
ID : 0
Format : MPEG-4 Visual
Format settings, BVOP : 1
Format settings, QPel : No
Format settings, GMC : No warppoints
Format settings, Matrix : Default (H.263)
Muxing mode : Packed bitstream
Codec ID : DX50
Codec ID/Hint : DivX 5
Duration : 1h 5mn
Bit rate : 2 074 Kbps
Width : 704 pixels
Height : 528 pixels
Display aspect ratio : 4:3
Frame rate : 25.000 fps
Color space : YUV
Chroma subsampling : 4:2:0
Bit depth : 8 bits
Scan type : Progressive
Compression mode : Lossy
Bits/(Pixel*Frame) : 0.223
Stream size : 967 MiB (91%)
Writing library : DivX 6.8.3-6.8.4 (UTC 2008-06-07)
Audio
ID : 1
Format : MPEG Audio
Format version : Version 1
Format profile : Layer 3
Mode : Joint stereo
Mode extension : MS Stereo
Codec ID : 55
Codec ID/Hint : MP3
Duration : 1h 5mn
Bit rate mode : Constant
Bit rate : 192 Kbps
Channel(s) : 2 channels
Sampling rate : 48.0 KHz
Compression mode : Lossy
Stream size : 89.5 MiB (8%)
Alignment : Aligned on interleaves
Interleave, duration : 40 ms (1.00 video frame)
Interleave, preload duration : 504 ms
Writing library : LAME3.97
Encoding settings : -m j -V 4 -q 1 -b 192
Раздача с 14.00 до 2.30 (время московское)
Download / Скачать

Хотите скачать бесплатно? Зарегистрируйтесь на сайте (ссылка на регистрацию). Pirat.ca - самый быстрый торрент трекер в рунете!

Как скачивать  ·   Что такое торрент  ·   Рейтинг и ограничения

Vintorezov REG 39

Легенда

176

Пост 23-Сен-2014 08:38 (спустя 1 день 18 часов)

[Q] 

Пора его уже покрасить и оцифровать Супер!
[Профиль]  [ЛС] 

Pingvin11

Корсар

80

Пост 23-Сен-2014 09:25 (спустя 46 минут)

[Q] 

Старый добрый советский фильм. Спасибо! Спасибо!!!
[Профиль]  [ЛС] 
Показать сообщения:    
Ответить на тему

Текущее время: Сегодня 03:13

Часовой пояс: GMT + 4



Вы не можете начинать темы
Вы не можете отвечать на сообщения
Вы не можете редактировать свои сообщения
Вы не можете удалять свои сообщения
Вы не можете голосовать в опросах
Вы не можете прикреплять файлы к сообщениям
Вы не можете скачивать файлы

▼ Вниз