ML
     
  Уважаемый Гость!
Вы можете поддержать проект и зарегистрироваться у наших партнеров - онлайн-стратегия MyLands. При регистрации в игре Вы получите код, который сможете активировать после регистрации на pirat.ca и получить 1000 дублонов.

Ваш код:
ea554e7ed3eacceeae87a8b30a9de3f086c18a84
 
     

И снова Анискин (3 серии) (Михаил Жаров, Виталий Иванов) [1978 г., детектив, семейный, DVDRip]

Ответить на тему
 
Автор
Сообщение

Пост 22-Сен-2014 14:01

[Q] 

Мархуз

-И снова Анискин (3 серии)-- Производство: СССР, Киностудия им. М. Горького
Режиссер: Михаил Жаров, Виталий Иванов
Жанр: детектив, семейный
Год выпуска: 1978 г.
Продолжительность: 3:16:57
В ролях: М. Жаров, В. Володин, Н. Подгорный, Т. Пельтцер, Л. Смирнова, Р. Ткачук, А. Белявский, В. Носик, Ю. Пузырев, Л. Борисов, Л. Овчинникова, Б. Щербаков, М. Фомина, В. Борцов-Описание: Из сельского музея при Доме культуры похищены ценные предметы прикладного искусства. Участковый Федор Иванович Анискин снова принимается за дело. Крайне скудные сведения о предполагаемом преступнике дали широкий круг подозреваемых: отставший от парохода матрос-пьяница, Верка Косая, тракторист Сидоров, грубые и несознательные шабашники, строящие силосную башню. Параллельно с официальным расследованием, за всеми шпионит помешанный на детективах Лютиков. Так кто же обокрал музей?.. Развязка неизбежна...-Качество видео: DVDRip
Контейнер: AVI
Видео кодек: DivX
Аудио кодек: MP3
1 серия: 704x528; 1913 kbps; 25 fps; 0.206 bit/pixel
2 серия: 704x528; 1914 kbps; 25 fps; 0.206 bit/pixel
3 серия: 704x528; 1914 kbps; 25 fps; 0.206 bit/pixel
Аудио: 192 kbps; 2 ch; 44,1 kHz
Cубтитры: отсутствуют
1 серия:
General
Complete name : E:\Torrent\I_snova_Aniskin_[Pirat.ca].torrent\1 серия.avi
Format : AVI
Format/Info : Audio Video Interleave
File size : 998 MiB
Duration : 1h 5mn
Overall bit rate : 2 115 Kbps
Writing application : VirtualDubModRus 1.5.10.2 (build 2542/release)
Writing library : VirtualDubMod build 2542/release
Video
ID : 0
Format : MPEG-4 Visual
Format settings, BVOP : 1
Format settings, QPel : No
Format settings, GMC : No warppoints
Format settings, Matrix : Default (H.263)
Muxing mode : Packed bitstream
Codec ID : DX50
Codec ID/Hint : DivX 5
Duration : 1h 5mn
Bit rate : 1 913 Kbps
Width : 704 pixels
Height : 528 pixels
Display aspect ratio : 4:3
Frame rate : 25.000 fps
Color space : YUV
Chroma subsampling : 4:2:0
Bit depth : 8 bits
Scan type : Progressive
Compression mode : Lossy
Bits/(Pixel*Frame) : 0.206
Stream size : 902 MiB (90%)
Writing library : DivX 6.8.3-6.8.4 (UTC 2008-06-07)
Audio
ID : 1
Format : MPEG Audio
Format version : Version 1
Format profile : Layer 3
Mode : Joint stereo
Mode extension : MS Stereo
Codec ID : 55
Codec ID/Hint : MP3
Duration : 1h 5mn
Bit rate mode : Constant
Bit rate : 192 Kbps
Channel(s) : 2 channels
Sampling rate : 48.0 KHz
Compression mode : Lossy
Stream size : 90.6 MiB (9%)
Alignment : Aligned on interleaves
Interleave, duration : 40 ms (1.00 video frame)
Interleave, preload duration : 504 ms
Writing library : LAME3.97
Encoding settings : -m j -V 4 -q 1 -b 192
2 серия:
General
Complete name : E:\Torrent\I_snova_Aniskin_[Pirat.ca].torrent\2 серия.avi
Format : AVI
Format/Info : Audio Video Interleave
File size : 996 MiB
Duration : 1h 5mn
Overall bit rate : 2 115 Kbps
Writing application : VirtualDubModRus 1.5.10.2 (build 2542/release)
Writing library : VirtualDubMod build 2542/release
Video
ID : 0
Format : MPEG-4 Visual
Format settings, BVOP : 1
Format settings, QPel : No
Format settings, GMC : No warppoints
Format settings, Matrix : Default (H.263)
Muxing mode : Packed bitstream
Codec ID : DX50
Codec ID/Hint : DivX 5
Duration : 1h 5mn
Bit rate : 1 914 Kbps
Width : 704 pixels
Height : 528 pixels
Display aspect ratio : 4:3
Frame rate : 25.000 fps
Color space : YUV
Chroma subsampling : 4:2:0
Bit depth : 8 bits
Scan type : Progressive
Compression mode : Lossy
Bits/(Pixel*Frame) : 0.206
Stream size : 901 MiB (90%)
Writing library : DivX 6.8.3-6.8.4 (UTC 2008-06-07)
Audio
ID : 1
Format : MPEG Audio
Format version : Version 1
Format profile : Layer 3
Mode : Joint stereo
Mode extension : MS Stereo
Codec ID : 55
Codec ID/Hint : MP3
Duration : 1h 5mn
Bit rate mode : Constant
Bit rate : 192 Kbps
Channel(s) : 2 channels
Sampling rate : 48.0 KHz
3 серия:
General
Complete name : E:\Torrent\I_snova_Aniskin_[Pirat.ca].torrent\3 серия.avi
Format : AVI
Format/Info : Audio Video Interleave
File size : 986 MiB
Duration : 1h 5mn
Overall bit rate : 2 116 Kbps
Writing application : VirtualDubModRus 1.5.10.2 (build 2542/release)
Writing library : VirtualDubMod build 2542/release
Video
ID : 0
Format : MPEG-4 Visual
Format settings, BVOP : 1
Format settings, QPel : No
Format settings, GMC : No warppoints
Format settings, Matrix : Default (H.263)
Muxing mode : Packed bitstream
Codec ID : DX50
Codec ID/Hint : DivX 5
Duration : 1h 5mn
Bit rate : 1 914 Kbps
Width : 704 pixels
Height : 528 pixels
Display aspect ratio : 4:3
Frame rate : 25.000 fps
Color space : YUV
Chroma subsampling : 4:2:0
Bit depth : 8 bits
Scan type : Progressive
Compression mode : Lossy
Bits/(Pixel*Frame) : 0.206
Stream size : 892 MiB (90%)
Writing library : DivX 6.8.3-6.8.4 (UTC 2008-06-07)
Audio
ID : 1
Format : MPEG Audio
Format version : Version 1
Format profile : Layer 3
Mode : Joint stereo
Mode extension : MS Stereo
Codec ID : 55
Codec ID/Hint : MP3
Duration : 1h 5mn
Bit rate mode : Constant
Bit rate : 192 Kbps
Channel(s) : 2 channels
Sampling rate : 48.0 KHz
Compression mode : Lossy
Stream size : 89.5 MiB (9%)
Alignment : Aligned on interleaves
Interleave, duration : 40 ms (1.00 video frame)
Interleave, preload duration : 504 ms
Writing library : LAME3.97
Encoding settings : -m j -V 4 -q 1 -b 192
Раздача с 14.00 до 2.30 (время московское)
Download / Скачать

Хотите скачать бесплатно? Зарегистрируйтесь на сайте (ссылка на регистрацию). Pirat.ca - самый быстрый торрент трекер в рунете!

Как скачивать  ·   Что такое торрент  ·   Рейтинг и ограничения



Последний раз редактировалось: Мархуз (2014-09-22 17:04), всего редактировалось 1 раз

Oksika

Флибустьер

Пост 22-Сен-2014 16:27 (спустя 2 часа 26 минут)

[Q] 

Старое, доброе, приятное КИНО!
Добавлено спустя 1 час 31 минута 9 секунд:
Поторопился, видно, раздающий!!!
«1 серия.avi» – 3 серия
«2 серия.avi» – 1 серия
«3 серия.avi» – 2 серия
[Профиль]  [ЛС] 

Мархуз ®

4505

Пост 22-Сен-2014 17:06 (спустя 39 минут)

[Q] 

Oksika, спасибо. уже исправил. aa

_________________

Счастье для всех, даром, и пусть никто не уйдёт обиженный
[Профиль]  [ЛС] 

Пост 22-Сен-2014 17:40 (спустя 33 минуты)

Топик был перенесен из форума Наше кино (Трюм) в форум Золотая коллекция
kugesan
 
Показать сообщения:    
Ответить на тему

Текущее время: Сегодня 12:13

Часовой пояс: GMT + 4



Вы не можете начинать темы
Вы не можете отвечать на сообщения
Вы не можете редактировать свои сообщения
Вы не можете удалять свои сообщения
Вы не можете голосовать в опросах
Вы не можете прикреплять файлы к сообщениям
Вы не можете скачивать файлы

▼ Вниз