ML
     
  Уважаемый Гость!
Вы можете поддержать проект и зарегистрироваться у наших партнеров - онлайн-стратегия MyLands. При регистрации в игре Вы получите код, который сможете активировать после регистрации на pirat.ca и получить 1000 дублонов.

Ваш код:
2932e5898d0a27592397f70b82a5834d1e70ea19
 
     

Тринадцать (Михаил Ромм) [1936 г., военный, DVDRip]

Ответить на тему
 
Автор
Сообщение

Пост 01-Окт-2014 16:09

[Q] 

Мархуз

-Тринадцать-- Производство: СССР. Мосфильм
Режиссер: Михаил Ромм
Жанр: военный
Год выпуска: 1936 г.
Продолжительность: 01:21:35
В ролях: Иван Новосельцев, Елена Кузьмина, Александр Чистяков, Андрей Файт, Андрей Долинин, Иван Кузнецов, Пётр Масоха, Павел Юдин, Давид Зольц, Виктор Кулаков.-Описание: Десять демобилизованных красноармейцев едут по пустыне до железной дороги. С ними ещё три человека: командир погранзаставы Журавлёв с женой Марьей Николаевной и старик-геолог. В пустыне они находят колодец и спрятанные пулемёты — базу басмача Ширмат-хана, которого Красная армия не может обезвредить уже целый год. Отправив одного бойца за подмогой, остальные остаются, чтобы удержать басмачей.
В колодце, впрочем, почти нет воды, но красноармейцы тщательно скрывают это от подошедших басмачей. Бандиты сильно страдают от жажды, но предпринимают яростные атаки в попытке добраться до колодца…..-Качество видео: DVDRip
Контейнер: AVI
Видео кодек: XviD
Аудио кодек: MP3
Видео: 640x480; 1809 kbps; 25 fps; 0.236 bit/pixel
Аудио: 128 kbps; 2 ch; 48 kHz
Cубтитры: отсутствуют
General
Complete name : E:\Torrent\Trinadzat_[Pirat.ca].torrent.avi
Format : AVI
Format/Info : Audio Video Interleave
File size : 1.06 GiB
Duration : 1h 18mn
Overall bit rate : 1 946 Kbps
Movie name : Тринадцать (1936)
Writing application : VirtualDubMod 1.5.10.2 (build 2540/release)VirtualDubMod build 2540/release
Writing library : VirtualDub build 35390/release
Copyright : uralmix
Video
ID : 0
Format : MPEG-4 Visual
Format profile : Advanced [email protected]
Format settings, BVOP : 2
Format settings, QPel : No
Format settings, GMC : No warppoints
Format settings, Matrix : Default (H.263)
Muxing mode : Packed bitstream
Codec ID : XVID
Codec ID/Hint : XviD
Duration : 1h 18mn
Bit rate : 1 809 Kbps
Width : 640 pixels
Height : 480 pixels
Display aspect ratio : 4:3
Frame rate : 25.000 fps
Color space : YUV
Chroma subsampling : 4:2:0
Bit depth : 8 bits
Scan type : Progressive
Compression mode : Lossy
Bits/(Pixel*Frame) : 0.236
Stream size : 1 012 MiB (93%)
Writing library : XviD 64
Audio
ID : 1
Format : MPEG Audio
Format version : Version 1
Format profile : Layer 3
Codec ID : 55
Codec ID/Hint : MP3
Duration : 1h 18mn
Bit rate mode : Constant
Bit rate : 128 Kbps
Channel(s) : 2 channels
Sampling rate : 48.0 KHz
Compression mode : Lossy
Stream size : 71.6 MiB (7%)
Alignment : Aligned on interleaves
Interleave, duration : 40 ms (1.00 video frame)
Interleave, preload duration : 504 ms
Writing library : LAME3.98r
Encoding settings : -m s -V 4 -q 2 -lowpass 17 -b 128
Раздача с 14.00 до 2.30 (время московское)
Download / Скачать

Хотите скачать бесплатно? Зарегистрируйтесь на сайте (ссылка на регистрацию). Pirat.ca - самый быстрый торрент трекер в рунете!

Как скачивать  ·   Что такое торрент  ·   Рейтинг и ограничения

Пост 01-Окт-2014 17:28 (спустя 1 час 19 минут)

Топик был перенесен из форума Наше кино (Трюм) в форум Золотая коллекция
ara1205
 

Skala973

Корсар

Пост 10-Май-2015 05:40 (спустя 7 месяцев 8 дней)

[Q] 

О! Спасибо! Помню этот фильм! Там ещё у них воды не было, а они начали показывать что типа у них её полно, и на глазах у басмачей что-то вроде дУша устроили.
Славный фильм.
[Профиль]  [ЛС] 
Показать сообщения:    
Ответить на тему

Текущее время: Сегодня 07:59

Часовой пояс: GMT + 4



Вы не можете начинать темы
Вы не можете отвечать на сообщения
Вы не можете редактировать свои сообщения
Вы не можете удалять свои сообщения
Вы не можете голосовать в опросах
Вы не можете прикреплять файлы к сообщениям
Вы не можете скачивать файлы

▼ Вниз