ML
     
  Уважаемый Гость!
Вы можете поддержать проект и зарегистрироваться у наших партнеров - онлайн-стратегия MyLands. При регистрации в игре Вы получите код, который сможете активировать после регистрации на pirat.ca и получить 1000 дублонов.

Ваш код:
f612af22ea70acf5cbe90707ac5a076d215f8f7f
 
     

Дерсу Узала (2 серии) (Акира Куросава) [1975 г., биография, приключения, DVDRip]

Ответить на тему
 
Автор
Сообщение

Пост 03-Окт-2014 14:13

[Q] 

Мархуз

-Дерсу Узала (2 серии)-- Производство: СССР, Мосфильм; Япония, Atelier 41, Daiei Studios
Режиссер: Акира Куросава
Жанр: биография, приключения
Год выпуска: 1975 г.
Продолжительность: 02:16:03
В ролях: Юрий Соломин, Максим Мунзук, Николай Волков-ст., Советбек Джумадылов, Михаил Бычков, Суйменкул Чокморов, Светлана Данильченко, Дима Коршиков, Владимир Кремена, Александр Пятков-Описание: Фильм повествует о драматической судьбе коренного жителя Уссурийской тайги Дерсу Узала, простого и чистого человека, воспринимающего всё в природе одушевлённым, о его дружбе с русским этнографом и путешественником В.К.Арсеньевым. Два раза был Дерсу проводником у Арсеньева, которого он называл капитаном, и не раз спасал его от верной гибели, много пережили они вместе…-Качество видео: DVDRip
Контейнер: AVI
Видео кодек: DivX
Аудио кодек: AC3
1серия: 704x304; 1720 kbps; 25 fps; 0.321 bit/pixel
2серия: 704x304; 1685 kbps; 25 fps; 0.315 bit/pixel
Аудио: 448 kbps; 6 ch; 48 kHz
Cубтитры: отсутствуют
1975 - Золотой приз и премия ФИПРЕССИ на IX Московском кинофестивале
1976 - премия «Оскар» за лучший иностранный фильм, показанный в США
1976 - Премия «Юсси» и диплом Ассоциации финских критиков советскому акционерному обществу «Космос-фильми» в Финляндии за выпуск фильма на экраны страны
1977 - Два приза «Давид ди Донателло»: за лучшую режиссуру иностранного фильма (Акира Куросава) и «Специальный Давид» за качество производства («Мосфильм»)
1977 - премия «Серебряная лента» Итальянского национального синдиката киножурналистов за лучшую режиссуру иностранного фильма (Акира Куросава)
1977 - Специальный приз Национальной ассоциации писателей и сценаристов Испании за лучший иностранный фильм, показанный в стране
1977 - Премия Союза испанских кинокритиков за лучший иностранный фильм (совместно с х/ф «Барри Линдон»)
1978 - Премия французских кинокритиков за лучшую актерскую игру (Максим Мунзук)
1980 - Лучший фильм среди фильмов 1970-х годов по опросу кинокритиков Перу
1 серия:
General
Complete name : E:\Torrent\Dersu_Uzala_[Pirat.ca].torrent\1 серия.avi
Format : AVI
Format/Info : Audio Video Interleave
File size : 1.03 GiB
Duration : 1h 7mn
Overall bit rate : 2 178 Kbps
Writing application : VirtualDubMod 1.5.10.2 (build 2540/release)
Writing library : VirtualDubMod build 2540/release
Video
ID : 0
Format : MPEG-4 Visual
Format settings, BVOP : 1
Format settings, QPel : No
Format settings, GMC : No warppoints
Format settings, Matrix : Default (H.263)
Muxing mode : Packed bitstream
Codec ID : DX50
Codec ID/Hint : DivX 5
Duration : 1h 7mn
Bit rate : 1 720 Kbps
Width : 704 pixels
Height : 304 pixels
Display aspect ratio : 2.35:1
Frame rate : 25.000 fps
Color space : YUV
Chroma subsampling : 4:2:0
Bit depth : 8 bits
Scan type : Progressive
Compression mode : Lossy
Bits/(Pixel*Frame) : 0.321
Stream size : 832 MiB (79%)
Writing library : DivX 6.8.3-6.8.4 (UTC 2008-06-07)
Audio
ID : 1
Format : AC-3
Format/Info : Audio Coding 3
Mode extension : CM (complete main)
Format settings, Endianness : Big
Codec ID : 2000
Duration : 1h 7mn
Bit rate mode : Constant
Bit rate : 448 Kbps
Channel(s) : 6 channels
Channel positions : Front: L C R, Side: L R, LFE
Sampling rate : 48.0 KHz
Bit depth : 16 bits
Compression mode : Lossy
Stream size : 217 MiB (21%)
Alignment : Split accross interleaves
Interleave, duration : 40 ms (1.00 video frame)
Interleave, preload duration : 500 ms
2серия:
General
Complete name : E:\Torrent\Dersu_Uzala_[Pirat.ca].torrent\2 серия.avi
Format : AVI
Format/Info : Audio Video Interleave
File size : 1.02 GiB
Duration : 1h 8mn
Overall bit rate : 2 143 Kbps
Writing application : VirtualDubMod 1.5.10.2 (build 2540/release)
Writing library : VirtualDubMod build 2540/release
Video
ID : 0
Format : MPEG-4 Visual
Format settings, BVOP : 1
Format settings, QPel : No
Format settings, GMC : No warppoints
Format settings, Matrix : Default (H.263)
Muxing mode : Packed bitstream
Codec ID : DX50
Codec ID/Hint : DivX 5
Duration : 1h 8mn
Bit rate : 1 685 Kbps
Width : 704 pixels
Height : 304 pixels
Display aspect ratio : 2.35:1
Frame rate : 25.000 fps
Color space : YUV
Chroma subsampling : 4:2:0
Bit depth : 8 bits
Scan type : Progressive
Compression mode : Lossy
Bits/(Pixel*Frame) : 0.315
Stream size : 825 MiB (79%)
Writing library : DivX 6.8.3-6.8.4 (UTC 2008-06-07)
Audio
ID : 1
Format : AC-3
Format/Info : Audio Coding 3
Mode extension : CM (complete main)
Format settings, Endianness : Big
Codec ID : 2000
Duration : 1h 8mn
Bit rate mode : Constant
Bit rate : 448 Kbps
Channel(s) : 6 channels
Channel positions : Front: L C R, Side: L R, LFE
Sampling rate : 48.0 KHz
Bit depth : 16 bits
Compression mode : Lossy
Stream size : 219 MiB (21%)
Alignment : Split accross interleaves
Interleave, duration : 40 ms (1.00 video frame)
Interleave, preload duration : 500 ms
Раздача с 14.00 до 2.30 (время московское)
Download / Скачать

Хотите скачать бесплатно? Зарегистрируйтесь на сайте (ссылка на регистрацию). Pirat.ca - самый быстрый торрент трекер в рунете!

Как скачивать  ·   Что такое торрент  ·   Рейтинг и ограничения

mstislaw

Флибустьер

Пост 03-Окт-2014 15:33 (спустя 1 час 19 минут)

[Q] 

Спасибо. Очень люблю этот фильм.
[Профиль]  [ЛС] 

Пост 03-Окт-2014 16:33 (спустя 59 минут)

Топик был перенесен из форума Наше кино (Трюм) в форум Золотая коллекция
kugesan
 

[email protected].ru

Корсар

Пост 03-Окт-2014 19:22 (спустя 3 часа)

[Q] 

надо бы посмотреть.
[Профиль]  [ЛС] 

[email protected].ru

Корсар

Пост 03-Окт-2014 22:54 (спустя 3 часа)

[Q] 

Хороший фильм, полезно будет ребенку показать. Жаль, что качество оставляет желать лучшего. Куросаву посмотреть всегда полезно и приятно. Спасибо за раздачу.
[Профиль]  [ЛС] 
Показать сообщения:    
Ответить на тему

Текущее время: Сегодня 00:22

Часовой пояс: GMT + 4



Вы не можете начинать темы
Вы не можете отвечать на сообщения
Вы не можете редактировать свои сообщения
Вы не можете удалять свои сообщения
Вы не можете голосовать в опросах
Вы не можете прикреплять файлы к сообщениям
Вы не можете скачивать файлы

▼ Вниз