ML
     
  Уважаемый Гость!
Вы можете поддержать проект и зарегистрироваться у наших партнеров - онлайн-стратегия MyLands. При регистрации в игре Вы получите код, который сможете активировать после регистрации на pirat.ca и получить 1000 дублонов.

Ваш код:
e93cd9e43017f251127f220889864c05934e61c6
 
     

Сердце Бонивура (4 серии) (Марк Орлов) [1969 г., военный, история, TVRip]

Ответить на тему
 
Автор
Сообщение

Пост 05-Окт-2014 14:27

[Q] 

Мархуз

-Сердце Бонивура (4 серии)-- Производство: СССР. Киностудия им. А. Довженко
Режиссер: Марк Орлов
Жанр: военный, история
Год выпуска: 1969 г.
Продолжительность: 4 х 01:03:15
В ролях: Лев Прыгунов, Борис Чирков, Иван Переверзев, Виктор Коршунов, Петр Глебов, Лилия Дзюба, Майя Булгакова, Тамара Королюк, Евгений Буренков, Герман Колушкин, Павел Волков, Галина Гальченко, Анатолий Юрченко, Юрий Лавров, Владимир Дальский, Сергей Курилов, Георгий Куликов, Владимир Емельянов, Владимир Волчик, Виктор Кондратюк, Виктор Чекмарев, Николай Кузьмин, Евгений Гвоздёв.-Описание: Фильм посвящен молодому подпольщику, комсомольцу Виталию Бонивуру, боровшемуся за установление Советской власти на Дальнем Востоке и в Приморье.-Качество видео: TVRip
Контейнер: AVI
Видео кодек: XviD
Аудио кодек: AC3
1серия: 656х480; 896 kbps; 25 fps; 0.114 bit/pixel
2серия: 656х480; 845 kbps; 25 fps; 0.107 bit/pixel
3серия: 656х480; 955 kbps; 25 fps; 0.121 bit/pixel
4серия: 656х480; 1045 kbps; 25 fps; 0.133 bit/pixel
Аудио: 192 kbps; 2 ch; 48 kHz
Cубтитры: отсутствуют
1серия:
General
Complete name : E:\Torrent\Serdce_Bonivura_[Pirat.ca].torrent\1 серия.avi
Format : AVI
Format/Info : Audio Video Interleave
File size : 506 MiB
Duration : 1h 4mn
Overall bit rate : 1 097 Kbps
Movie name : Сердце Бонивура (1969)
Writing library : VirtualDub build 35390/release
Copyright : HeDgEhOt®
Video
ID : 0
Format : MPEG-4 Visual
Format profile : Advanced [email protected]
Format settings, BVOP : 2
Format settings, QPel : No
Format settings, GMC : No warppoints
Format settings, Matrix : Default (H.263)
Muxing mode : Packed bitstream
Codec ID : XVID
Codec ID/Hint : XviD
Duration : 1h 4mn
Bit rate : 896 Kbps
Width : 656 pixels
Height : 480 pixels
Display aspect ratio : 4:3
Frame rate : 25.000 fps
Color space : YUV
Chroma subsampling : 4:2:0
Bit depth : 8 bits
Scan type : Progressive
Compression mode : Lossy
Bits/(Pixel*Frame) : 0.114
Stream size : 413 MiB (82%)
Writing library : XviD 64
Audio
ID : 1
Format : AC-3
Format/Info : Audio Coding 3
Mode extension : CM (complete main)
Format settings, Endianness : Big
Codec ID : 2000
Duration : 1h 4mn
Bit rate mode : Constant
Bit rate : 192 Kbps
Channel(s) : 2 channels
Channel positions : Front: L R
Sampling rate : 48.0 KHz
Bit depth : 16 bits
Compression mode : Lossy
Stream size : 88.5 MiB (17%)
Alignment : Aligned on interleaves
Interleave, duration : 40 ms (1.00 video frame)
Interleave, preload duration : 512 ms
2серия:
General
Complete name : E:\Torrent\Serdce_Bonivura_[Pirat.ca].torrent\2 серия.avi
Format : AVI
Format/Info : Audio Video Interleave
File size : 474 MiB
Duration : 1h 3mn
Overall bit rate : 1 047 Kbps
Movie name : Сердце Бонивура (1969)
Writing library : VirtualDub build 35390/release
Copyright : HeDgEhOt®
Video
ID : 0
Format : MPEG-4 Visual
Format profile : Advanced [email protected]
Format settings, BVOP : 2
Format settings, QPel : No
Format settings, GMC : No warppoints
Format settings, Matrix : Default (H.263)
Muxing mode : Packed bitstream
Codec ID : XVID
Codec ID/Hint : XviD
Duration : 1h 3mn
Bit rate : 845 Kbps
Width : 656 pixels
Height : 480 pixels
Display aspect ratio : 4:3
Frame rate : 25.000 fps
Color space : YUV
Chroma subsampling : 4:2:0
Bit depth : 8 bits
Scan type : Progressive
Compression mode : Lossy
Bits/(Pixel*Frame) : 0.107
Stream size : 382 MiB (81%)
Writing library : XviD 64
Audio
ID : 1
Format : AC-3
Format/Info : Audio Coding 3
Mode extension : CM (complete main)
Format settings, Endianness : Big
Codec ID : 2000
Duration : 1h 3mn
Bit rate mode : Constant
Bit rate : 192 Kbps
Channel(s) : 2 channels
Channel positions : Front: L R
Sampling rate : 48.0 KHz
Bit depth : 16 bits
Compression mode : Lossy
Stream size : 86.9 MiB (18%)
Alignment : Aligned on interleaves
Interleave, duration : 40 ms (1.00 video frame)
Interleave, preload duration : 512 ms
3серия:
General
Complete name : E:\Torrent\Serdce_Bonivura_[Pirat.ca].torrent\3 серия.avi
Format : AVI
Format/Info : Audio Video Interleave
File size : 525 MiB
Duration : 1h 3mn
Overall bit rate : 1 157 Kbps
Movie name : Сердце Бонивура (1969)
Writing library : VirtualDub build 35390/release
Copyright : HeDgEhOt®
Video
ID : 0
Format : MPEG-4 Visual
Format profile : Advanced [email protected]
Format settings, BVOP : 2
Format settings, QPel : No
Format settings, GMC : No warppoints
Format settings, Matrix : Default (H.263)
Muxing mode : Packed bitstream
Codec ID : XVID
Codec ID/Hint : XviD
Duration : 1h 3mn
Bit rate : 955 Kbps
Width : 656 pixels
Height : 480 pixels
Display aspect ratio : 4:3
Frame rate : 25.000 fps
Color space : YUV
Chroma subsampling : 4:2:0
Bit depth : 8 bits
Scan type : Progressive
Compression mode : Lossy
Bits/(Pixel*Frame) : 0.121
Stream size : 433 MiB (83%)
Writing library : XviD 64
Audio
ID : 1
Format : AC-3
Format/Info : Audio Coding 3
Mode extension : CM (complete main)
Format settings, Endianness : Big
Codec ID : 2000
Duration : 1h 3mn
Bit rate mode : Constant
Bit rate : 192 Kbps
Channel(s) : 2 channels
Channel positions : Front: L R
Sampling rate : 48.0 KHz
Bit depth : 16 bits
Compression mode : Lossy
Stream size : 87.1 MiB (17%)
Alignment : Aligned on interleaves
Interleave, duration : 40 ms (1.00 video frame)
Interleave, preload duration : 512 ms
4серия:
General
Complete name : E:\Torrent\Serdce_Bonivura_[Pirat.ca].torrent\4 серия.avi
Format : AVI
Format/Info : Audio Video Interleave
File size : 472 MiB
Duration : 52mn 58s
Overall bit rate : 1 247 Kbps
Movie name : Сердце Бонивура (1969)
Writing library : VirtualDub build 35390/release
Copyright : HeDgEhOt®
Video
ID : 0
Format : MPEG-4 Visual
Format profile : Advanced [email protected]
Format settings, BVOP : 2
Format settings, QPel : No
Format settings, GMC : No warppoints
Format settings, Matrix : Default (H.263)
Muxing mode : Packed bitstream
Codec ID : XVID
Codec ID/Hint : XviD
Duration : 52mn 58s
Bit rate : 1 045 Kbps
Width : 656 pixels
Height : 480 pixels
Display aspect ratio : 4:3
Frame rate : 25.000 fps
Color space : YUV
Chroma subsampling : 4:2:0
Bit depth : 8 bits
Scan type : Progressive
Compression mode : Lossy
Bits/(Pixel*Frame) : 0.133
Stream size : 396 MiB (84%)
Writing library : XviD 64
Audio
ID : 1
Format : AC-3
Format/Info : Audio Coding 3
Mode extension : CM (complete main)
Format settings, Endianness : Big
Codec ID : 2000
Duration : 52mn 58s
Bit rate mode : Constant
Bit rate : 192 Kbps
Channel(s) : 2 channels
Channel positions : Front: L R
Sampling rate : 48.0 KHz
Bit depth : 16 bits
Compression mode : Lossy
Stream size : 72.7 MiB (15%)
Alignment : Aligned on interleaves
Interleave, duration : 40 ms (1.00 video frame)
Interleave, preload duration : 512 ms
Раздача с 14.00 до 2.30 (время московское)
Download / Скачать

Хотите скачать бесплатно? Зарегистрируйтесь на сайте (ссылка на регистрацию). Pirat.ca - самый быстрый торрент трекер в рунете!

Как скачивать  ·   Что такое торрент  ·   Рейтинг и ограничения

Пост 05-Окт-2014 18:35 (спустя 4 часа)

Топик был перенесен из форума Наше кино (Трюм) в форум Золотая коллекция
kugesan
 

somik

Легенда

26679

Пост 06-Окт-2016 15:28 (спустя 2 года)

[Q] 

Спасибо! Наконец нашёл...

_________________
Всё когда-нибудь уже было... В интернете!
[Профиль]  [ЛС] 
Показать сообщения:    
Ответить на тему

Текущее время: Сегодня 04:25

Часовой пояс: GMT + 4



Вы не можете начинать темы
Вы не можете отвечать на сообщения
Вы не можете редактировать свои сообщения
Вы не можете удалять свои сообщения
Вы не можете голосовать в опросах
Вы не можете прикреплять файлы к сообщениям
Вы не можете скачивать файлы

▼ Вниз