ML
     
  Уважаемый Гость!
Вы можете поддержать проект и зарегистрироваться у наших партнеров - онлайн-стратегия MyLands. При регистрации в игре Вы получите код, который сможете активировать после регистрации на pirat.ca и получить 1000 дублонов.

Ваш код:
ba41f7961e0b4717aed6a401d955262223b8f6c4
 
     

Майор Вихрь (3 серии) (Евгений Ташков) [1967 г., военный, DVDRip]

Ответить на тему
 
Автор
Сообщение

Пост 16-Окт-2014 13:32

[Q] 

Мархуз

-Майор Вихрь (3 серии)-- Производство: СССР, Мосфильм
Режиссер: Евгений Ташков
Жанр: военный
Год выпуска: 1967 г.
Продолжительность: 3 х 01:10:00
В ролях: Виктор Павлов, Владимир Гусев, Владимир Кенигсон, Владислав Стржельчик, Игорь Ясулович, Олег Голубицкий, Александр Ширвиндт,
Анастасия Вознесенская, Вадим Бероев, Евгений Ташков-Описание: В основе сюжета - исторические факты и события операции, проведенной советскими разведчиками по спасению Кракова от уничтожения фашистами в 1944 году. Гитлеровское командование приняло план уничтожения памятников культуры Восточной Европы. Узнав об этом, советское командование направляет в Краков группу разведчиков, воглавляемую майором "Вихрем"...-Качество видео: DVDRip
Контейнер: AVI
Видео кодек: DivX
Аудио кодек: AC3
Видео: 608x448; 1278 kbps; 25 fps; 0.188 bit/pixel
Аудио: 192 kbps; 2 ch; 48 kHz
Cубтитры: отсутствуют
1серия:
General
Complete name : E:\Torrent\Mayor_Vihr_[Pirat.ca].torrent\1 серия.avi
Format : AVI
Format/Info : Audio Video Interleave
File size : 700 MiB
Duration : 1h 6mn
Overall bit rate : 1 480 Kbps
Writing application : VirtualDubMod 1.4.13
Writing library : VirtualDub build 14328/release
Video
ID : 0
Format : MPEG-4 Visual
Format settings, BVOP : 1
Format settings, QPel : No
Format settings, GMC : No warppoints
Format settings, Matrix : Default (H.263)
Muxing mode : Packed bitstream
Codec ID : DX50
Codec ID/Hint : DivX 5
Duration : 1h 6mn
Bit rate : 1 278 Kbps
Width : 608 pixels
Height : 448 pixels
Display aspect ratio : 4:3
Frame rate : 25.000 fps
Color space : YUV
Chroma subsampling : 4:2:0
Bit depth : 8 bits
Scan type : Progressive
Compression mode : Lossy
Bits/(Pixel*Frame) : 0.188
Stream size : 605 MiB (86%)
Writing library : DivX 5.0.5 (UTC 2003-04-24)
Audio
ID : 1
Format : AC-3
Format/Info : Audio Coding 3
Mode extension : CM (complete main)
Format settings, Endianness : Big
Codec ID : 2000
Duration : 1h 6mn
Bit rate mode : Constant
Bit rate : 192 Kbps
Channel(s) : 2 channels
Channel positions : Front: L R
Sampling rate : 48.0 KHz
Bit depth : 16 bits
Compression mode : Lossy
Delay relative to video : 550ms
Stream size : 90.9 MiB (13%)
Alignment : Split accross interleaves
Interleave, duration : 40 ms (1.00 video frame)
Interleave, preload duration : 500 ms
2серия:
General
Complete name : E:\Torrent\Mayor_Vihr_[Pirat.ca].torrent\2 серия.avi
Format : AVI
Format/Info : Audio Video Interleave
File size : 700 MiB
Duration : 1h 10mn
Overall bit rate : 1 391 Kbps
Writing application : VirtualDubMod 1.4.13
Writing library : VirtualDub build 14328/release
Video
ID : 0
Format : MPEG-4 Visual
Format settings, BVOP : 1
Format settings, QPel : No
Format settings, GMC : No warppoints
Format settings, Matrix : Default (H.263)
Muxing mode : Packed bitstream
Codec ID : DX50
Codec ID/Hint : DivX 5
Duration : 1h 10mn
Bit rate : 1 189 Kbps
Width : 608 pixels
Height : 448 pixels
Display aspect ratio : 4:3
Frame rate : 25.000 fps
Color space : YUV
Chroma subsampling : 4:2:0
Bit depth : 8 bits
Scan type : Progressive
Compression mode : Lossy
Bits/(Pixel*Frame) : 0.175
Stream size : 599 MiB (86%)
Writing library : DivX 5.0.5 (UTC 2003-04-24)
Audio
ID : 1
Format : AC-3
Format/Info : Audio Coding 3
Mode extension : CM (complete main)
Format settings, Endianness : Big
Codec ID : 2000
Duration : 1h 10mn
Bit rate mode : Constant
Bit rate : 192 Kbps
Channel(s) : 2 channels
Channel positions : Front: L R
Sampling rate : 48.0 KHz
Bit depth : 16 bits
Compression mode : Lossy
Delay relative to video : 700ms
Stream size : 96.6 MiB (14%)
Alignment : Split accross interleaves
Interleave, duration : 40 ms (1.00 video frame)
Interleave, preload duration : 500 ms
3серия:
General
Complete name : E:\Torrent\Mayor_Vihr_[Pirat.ca].torrent\3 серия.avi
Format : AVI
Format/Info : Audio Video Interleave
File size : 700 MiB
Duration : 1h 17mn
Overall bit rate : 1 257 Kbps
Writing application : VirtualDubMod 1.4.13
Writing library : VirtualDub build 14328/release
Video
ID : 0
Format : MPEG-4 Visual
Format settings, BVOP : 1
Format settings, QPel : No
Format settings, GMC : No warppoints
Format settings, Matrix : Default (H.263)
Muxing mode : Packed bitstream
Codec ID : DX50
Codec ID/Hint : DivX 5
Duration : 1h 17mn
Bit rate : 1 056 Kbps
Width : 608 pixels
Height : 448 pixels
Display aspect ratio : 4:3
Frame rate : 25.000 fps
Color space : YUV
Chroma subsampling : 4:2:0
Bit depth : 8 bits
Scan type : Progressive
Compression mode : Lossy
Bits/(Pixel*Frame) : 0.155
Stream size : 588 MiB (84%)
Writing library : DivX 5.0.5 (UTC 2003-04-24)
Audio
ID : 1
Format : AC-3
Format/Info : Audio Coding 3
Mode extension : CM (complete main)
Format settings, Endianness : Big
Codec ID : 2000
Duration : 1h 17mn
Bit rate mode : Constant
Bit rate : 192 Kbps
Channel(s) : 2 channels
Channel positions : Front: L R
Sampling rate : 48.0 KHz
Bit depth : 16 bits
Compression mode : Lossy
Delay relative to video : 700ms
Stream size : 107 MiB (15%)
Alignment : Split accross interleaves
Interleave, duration : 40 ms (1.00 video frame)
Interleave, preload duration : 500 ms
Раздача с 14.00 до 2.30 (время московское)
Download / Скачать

Хотите скачать бесплатно? Зарегистрируйтесь на сайте (ссылка на регистрацию). Pirat.ca - самый быстрый торрент трекер в рунете!

Как скачивать  ·   Что такое торрент  ·   Рейтинг и ограничения

Пост 16-Окт-2014 17:36 (спустя 4 часа)

Топик был перенесен из форума Наше кино (Трюм) в форум Золотая коллекция
kugesan
 

Vintorezov REG 39

Легенда

176

Пост 16-Окт-2014 20:57 (спустя 7 часов)

[Q] 

Ретро боевик класс Лови бочку
[Профиль]  [ЛС] 

Ballu

Лоцман

Пост 26-Янв-2015 00:30 (спустя 3 месяца 9 дней)

[Q] 

Супер, давно искал, качаем)
[Профиль]  [ЛС] 
Показать сообщения:    
Ответить на тему

Текущее время: Сегодня 14:49

Часовой пояс: GMT + 4



Вы не можете начинать темы
Вы не можете отвечать на сообщения
Вы не можете редактировать свои сообщения
Вы не можете удалять свои сообщения
Вы не можете голосовать в опросах
Вы не можете прикреплять файлы к сообщениям
Вы не можете скачивать файлы

▼ Вниз