ML
     
  Уважаемый Гость!
Вы можете поддержать проект и зарегистрироваться у наших партнеров - онлайн-стратегия MyLands. При регистрации в игре Вы получите код, который сможете активировать после регистрации на pirat.ca и получить 1000 дублонов.

Ваш код:
c89b4b6523eaac3173e9a9c062ac1a19db575961
 
     

Баллада о солдате (Григорий Чухрай) [1959 г., военный, DVDRip]

Ответить на тему
 
Автор
Сообщение

Пост 18-Окт-2014 13:41

[Q] 

Мархуз

-Баллада о солдате-- Производство: СССР, Киностудия «Мосфильм»
Режиссер: Григорий Чухрай
Жанр: военный
Год выпуска: 1959 г.
Продолжительность: 01:27:55
В ролях: Владимир Ивашов, Жанна Прохоренко, Антонина Максимова, Николай Крючков, Евгений Урбанский, Эльза Леждей, Александр Кузнецов, Евгений Тетерин, Валентина Маркова, Мария Кремнева-Описание: Великая Отечественная война. Молодой солдат Алёша Скворцов совершает подвиг - подбивает два немецких танка. Командование собирается представить его к ордену, но Алёша просит дать ему отпуск, чтобы повидаться с мамой. Путь домой долог и непрост. Алеша помогает безногому инвалиду встретиться с женой, девушке Шуре - добраться до тетки. Даже последнюю ночь отпуска он проводит не под родной крышей, а спасая детей от бомбежки. И у солдата Скворцова остаётся всего несколько минут, чтобы обнять мать и сказать: «Я вернусь!»-Качество видео: DVDRip
Контейнер: AVI
Видео кодек: DivX
Аудио кодек: AC3
Видео: 720x544; 2025 kbps; 25 fps; 0.207 bit/pixel
Аудио: 448 kbps; 6 ch; 48 kHz
Cубтитры: отсутствуют
1960 г.- участие в конкурсной программе Каннского кинофестиваля, а также специальный приз жюри.
1960 г. - два приза «Золотые ворота» кинофестиваля в Сан-Франциско: за лучший фильм и за лучшую режиссуру (Григорий Чухрай).
1960 г.- премия «Давид ди Донателло» за режиссуру (Григорий Чухрай).
1961 г.- премия BAFTA за лучший фильм, а также номинация на премию лучшему иностранному актёру (Владимир Ивашов).
1961 г.- премия «Бодил» за лучший европейский фильм (Григорий Чухрай).
1961 г.- Ленинская премия (Валентин Ежов, Григорий Чухрай).
1962 г.- номинация на премию Оскар за лучший оригинальный сценарий (Валентин Ежов, Григорий Чухрай).
Фильм с успехом прошел по всему миру. В результате фильм получает 101 зарубежную премию. Time, Scope, Picture Show, News Week и другие журналы помещают его портреты на обложки своих изданий, в газетах печатают многочисленные статьи.
Картина была отмечена призом «За лучший фильм для молодежи» и призом «За высокий гуманизм и исключительные художественные качества» в Каннах.
General
Complete name : E:\Torrent\Ballada_o_soldate_[Pirat.ca].torrent.avi
Format : AVI
Format/Info : Audio Video Interleave
File size : 1.46 GiB
Duration : 1h 24mn
Overall bit rate : 2 483 Kbps
Writing application : VirtualDubModRus 1.5.10.2 (build 2542/release)
Writing library : VirtualDubMod build 2542/release
Video
ID : 0
Format : MPEG-4 Visual
Format settings, BVOP : 1
Format settings, QPel : No
Format settings, GMC : No warppoints
Format settings, Matrix : Default (H.263)
Muxing mode : Packed bitstream
Codec ID : DX50
Codec ID/Hint : DivX 5
Duration : 1h 24mn
Bit rate : 2 025 Kbps
Width : 720 pixels
Height : 544 pixels
Display aspect ratio : 4:3
Frame rate : 25.000 fps
Color space : YUV
Chroma subsampling : 4:2:0
Bit depth : 8 bits
Scan type : Progressive
Compression mode : Lossy
Bits/(Pixel*Frame) : 0.207
Stream size : 1.19 GiB (82%)
Writing library : DivX 6.6.0 (UTC 2007-05-04)
Audio
ID : 1
Format : AC-3
Format/Info : Audio Coding 3
Mode extension : CM (complete main)
Format settings, Endianness : Big
Codec ID : 2000
Duration : 1h 24mn
Bit rate mode : Constant
Bit rate : 448 Kbps
Channel(s) : 6 channels
Channel positions : Front: L C R, Side: L R, LFE
Sampling rate : 48.0 KHz
Bit depth : 16 bits
Compression mode : Lossy
Stream size : 270 MiB (18%)
Alignment : Aligned on interleaves
Interleave, duration : 40 ms (1.00 video frame)
Interleave, preload duration : 512 ms
Раздача с 14.00 до 2.30 (время московское)
Download / Скачать

Хотите скачать бесплатно? Зарегистрируйтесь на сайте (ссылка на регистрацию). Pirat.ca - самый быстрый торрент трекер в рунете!

Как скачивать  ·   Что такое торрент  ·   Рейтинг и ограничения

Пост 18-Окт-2014 23:04 (спустя 9 часов)

Топик был перенесен из форума Наше кино (Трюм) в форум Золотая коллекция
kugesan
 

Filimonia

Корсар

Пост 20-Окт-2014 09:46 (спустя 1 день 20 часов)

[Q] 

Нет раздающих. Ухожу...
[Профиль]  [ЛС] 

Мархуз ®

4507

Пост 20-Окт-2014 13:48 (спустя 4 часа)

[Q] 

Filimonia, обрати внимание на "Раздача".

_________________

Счастье для всех, даром, и пусть никто не уйдёт обиженный
[Профиль]  [ЛС] 

koasa

Штурман

Пост 31-Окт-2014 19:23 (спустя 11 дней)

[Q] 

Никаких спец. эффектов, никакого 3D, а уже 55 лет шедевр.
[Профиль]  [ЛС] 

Capitan_Argentum

Юнга

Пост 02-Июн-2015 00:35 (спустя 7 месяцев 1 день)

[Q] 

599237Никаких спец. эффектов, никакого 3D, а уже 55 лет шедевр.
ПРАВИЛЬНЫЕ СЛОВА!
[Профиль]  [ЛС] 
Показать сообщения:    
Ответить на тему

Текущее время: Сегодня 22:31

Часовой пояс: GMT + 4



Вы не можете начинать темы
Вы не можете отвечать на сообщения
Вы не можете редактировать свои сообщения
Вы не можете удалять свои сообщения
Вы не можете голосовать в опросах
Вы не можете прикреплять файлы к сообщениям
Вы не можете скачивать файлы

▼ Вниз