ML
     
  Уважаемый Гость!
Вы можете поддержать проект и зарегистрироваться у наших партнеров - онлайн-стратегия MyLands. При регистрации в игре Вы получите код, который сможете активировать после регистрации на pirat.ca и получить 1000 дублонов.

Ваш код:
a978488e62322cd72e113ab723b8a7fdc10eb9b9
 
     

Броненосец «Потёмкин» (Сергей Эйзенштейн) [1925 г., исторический, DVDRip]

Ответить на тему
 
Автор
Сообщение

Пост 26-Ноя-2014 15:25

[Q] 

Мархуз

-Броненосец «Потёмкин»-- Производство: СССР, «Мосфильм»
Режиссер: Сергей Эйзенштейн
Жанр: исторический
Год выпуска: 1925 г.
Продолжительность: 01:11:01
В ролях: Александр Антонов, Владимир Барский, Григорий Александров, Иван Бобров-Описание: Сценарий, по которому снимался фильм, основан на реальных событиях произошедших в июне 1905 года, когда на броненосце «Потёмкин» команда подняла восстание и захватила корабль. Фильм снят к 20-летию первой русской революции (1905 года).-Качество видео: DVDRip
Контейнер: AVI
Видео кодек: XviD
Аудио кодек: MP3
Видео: 576x432; 2376 kbps; 25 fps; 0.382 bit/pixel
Аудио: 128 kbps; 2 ch; 48 kHz
Cубтитры: русские
Формат субтитров: hardsub (неотключаемые)
Немой фильм был озвучен в 1930 году (при жизни режиссёра С. М. Эйзенштейна), восста-новлен в 1950-м (композитор Николай Крюков) и переиздан в 1976 году (композитор Дмитрий Шостакович) на киностудии «Мосфильм» при участии Госфильмофонда СССР и музея С. М. Эйзенштейна под художественным руководством Сергея Юткевича.
Audio 1: оригинальная музыка Эдмунда Мейзеля
Audio 2: музыка на основе произведений Дмитрия Шостаковича, созданная в 1965 году
Audio 3: музыка Николая Крюкова, созданная в 1950 году
1926 г. - Лучший фильм по признанию Американской Киноакадемии
1926 г. - Приз на всемирной выставке в Париже
1954 г. - Признан «одним из лучших» фильмов года
1958 г. - Признан первым в числе 12-ти лучших фильмов всех времён и народов по ре-зультатам международного опроса критиков в Брюсселе(110 голосов из 117)
1978 г. - Первый среди ста лучших фильмов по опросу киноведов мира.
В рейтинге десяти самых значительных фильмов мирового кино, который публикуется британским журналом Sight & Sound каждые десять лет, начиная с 1952 года, и основыва-ется на мнении более чем ста киноведов и (с 1992 года) режиссёров из разных стран мира, «Броненосец «Потёмкин» присутствовал каждый раз, занимая места с четвёртого по седьмое.
Занял третье место в списке журнала Empire «100 лучших фильмов мирового кинемато-графа», составленном в 2010 году
General
Complete name : E:\Torrent\Bronenosec_Potemkin_[Pirat.ca].torrent.avi
Format : AVI
Format/Info : Audio Video Interleave
File size : 1.37 GiB
Duration : 1h 11mn
Overall bit rate mode : Variable
Overall bit rate : 2 757 Kbps
Writing application : VirtualDubMod 1.5.10.1 (build 2439/release)
Writing library : VirtualDubMod build 2439/release
Video
ID : 0
Format : MPEG-4 Visual
Format profile : Advanced [email protected]
Format settings, BVOP : 1
Format settings, QPel : No
Format settings, GMC : No warppoints
Format settings, Matrix : Custom
Codec ID : XVID
Codec ID/Hint : XviD
Duration : 1h 11mn
Bit rate : 2 376 Kbps
Width : 576 pixels
Height : 432 pixels
Display aspect ratio : 4:3
Frame rate : 25.000 fps
Color space : YUV
Chroma subsampling : 4:2:0
Bit depth : 8 bits
Scan type : Progressive
Compression mode : Lossy
Bits/(Pixel*Frame) : 0.382
Stream size : 1.18 GiB (86%)
Writing library : XviD 1.2.0.dev47 (UTC 2006-11-01)
Audio #1
ID : 1
Format : MPEG Audio
Format version : Version 1
Format profile : Layer 3
Mode : Joint stereo
Mode extension : MS Stereo
Codec ID : 55
Codec ID/Hint : MP3
Duration : 1h 11mn
Bit rate mode : Constant
Bit rate : 128 Kbps
Channel(s) : 2 channels
Sampling rate : 48.0 KHz
Compression mode : Lossy
Stream size : 65.0 MiB (5%)
Alignment : Aligned on interleaves
Interleave, duration : 40 ms (1.00 video frame)
Interleave, preload duration : 504 ms
Writing library : LAME3.97
Encoding settings : -m j -V 4 -q 2 -lowpass 17 -b 128
Audio #2
ID : 2
Format : MPEG Audio
Format version : Version 1
Format profile : Layer 3
Mode : Joint stereo
Mode extension : MS Stereo
Codec ID : 55
Codec ID/Hint : MP3
Duration : 1h 11mn
Bit rate mode : Constant
Bit rate : 128 Kbps
Channel(s) : 2 channels
Sampling rate : 48.0 KHz
Compression mode : Lossy
Stream size : 65.0 MiB (5%)
Alignment : Aligned on interleaves
Interleave, duration : 40 ms (1.00 video frame)
Interleave, preload duration : 504 ms
Writing library : LAME3.97
Encoding settings : -m j -V 4 -q 2 -lowpass 17 -b 128
Audio #3
ID : 3
Format : MPEG Audio
Format version : Version 1
Format profile : Layer 3
Mode : Joint stereo
Codec ID : 55
Codec ID/Hint : MP3
Duration : 1h 11mn
Bit rate mode : Variable
Bit rate : 106 Kbps
Nominal bit rate : 128 Kbps
Channel(s) : 2 channels
Sampling rate : 48.0 KHz
Compression mode : Lossy
Stream size : 53.9 MiB (4%)
Alignment : Split accross interleaves
Interleave, duration : 40 ms (1.00 video frame)
Interleave, preload duration : 500 ms
Writing library : LAME3.97
Encoding settings : -m j -V 4 -q 2 -lowpass 17 --abr 128
Раздача с 14.00 до 2.30 (время московское)
Download / Скачать

Хотите скачать бесплатно? Зарегистрируйтесь на сайте (ссылка на регистрацию). Pirat.ca - самый быстрый торрент трекер в рунете!

Как скачивать  ·   Что такое торрент  ·   Рейтинг и ограничения

Пост 26-Ноя-2014 16:18 (спустя 53 минуты)

Топик был перенесен из форума Наше кино (Трюм) в форум Золотая коллекция
kugesan
 

Alien2000

Легенда

Пост 26-Ноя-2014 21:51 (спустя 6 часов)

[Q] 

Давно не смотрел. Спасибо.
Лови бочку
[Профиль]  [ЛС] 
Показать сообщения:    
Ответить на тему

Текущее время: Сегодня 22:06

Часовой пояс: GMT + 4



Вы не можете начинать темы
Вы не можете отвечать на сообщения
Вы не можете редактировать свои сообщения
Вы не можете удалять свои сообщения
Вы не можете голосовать в опросах
Вы не можете прикреплять файлы к сообщениям
Вы не можете скачивать файлы

▼ Вниз