ML
     
  Уважаемый Гость!
Вы можете поддержать проект и зарегистрироваться у наших партнеров - онлайн-стратегия MyLands. При регистрации в игре Вы получите код, который сможете активировать после регистрации на pirat.ca и получить 1000 дублонов.

Ваш код:
4fbd9898b6f10799a3e8edf60f31febd2bc15453
 
     

Эти невероятные музыканты, или Новые сновидения Шурика (Юрий Сааков) [1977 г., Комедия, Мюзикл, SATRip]

Ответить на тему
 
Автор
Сообщение

Пост 28-Дек-2014 11:29

[Q] 

naryshev

Флибустьер

-Эти невероятные музыканты, или Новые сновидения Шурика-- Производство: СССР
Режиссер: Юрий Сааков
Жанр: Комедия, Мюзикл
Год выпуска: 1977 г.
Продолжительность: 00:59:56
В ролях: Наталья Варлей, Георгий Вицин, Арчил Гомиашвили, Олег Даль, Александр Демьяненко, Валерий Золотухин, Савелий Крамаров, Наталья Крачковская, Леонид Куравлёв, Евгений Моргунов, Вячеслав Невинный, Светлана Светличная, Наталья Селезнёва, Алексей Смирнов-Описание:Телевизионный фильм-концерт по мотивам популярных комедий Леонида Гайдая «Операция «Ы» и другие приключения Шурика» (1965), «Кавказская пленница, или Новые приключения Шурика» (1966), «Бриллиантовая рука» (1968), «12 стульев» (1971), «Иван Васильевич меняет профессию» (1973), «Не может быть!» (1975).-

Качество видео: SATRip
Контейнер: mpg
Видео кодек: MPEG2
Аудио кодек: AC3
Видео: 720*576, 4289 Кбит/сек, 25,000 кадров/сек, 0.414Бит/(Пиксели*Кадры)
Аудио: 256 Кбит/сек, 2 канала, 48,0 КГц
Cубтитры: отсутствуют
1. Музыкальная сценка «Танцплощадка» (из «Кавказской пленницы») — все
2. Песенка о медведях (из «Кавказской пленницы») — Варлей
3. Фортепианная пьеса «Погоня» (из «Операции Ы») — Смирнов
4. «Разговор со счастьем» (из «Ивана Васильевича») — Куравлёв
5. Музыкальная картинка «Базар» (из «Операции Ы») — Моргунов
6. Песня, не вошедшая в фильм «12 стульев» — все
7. Музыкальная пьеса «Погоня» (из «Ивана Васильевича») — Даль
8. «С любовью встретиться» (из «Ивана Васильевича») — Селезнёва
9. Музыкальная пьеса «Погоня» (из «Операции Ы») — все
10. Колыбельная (из «Операции Ы») — Крачковская, Селезнёва, Варлей, Светличная
11. Музыкальная пьеса «Перекраска» (из «12 стульев») — Гомиашвили
12. Музыкальная пьеса «Хо-хо» (из «12 стульев») — все
13. Музыкальная картинка «Крушение надежд» (из «12 стульев») — Моргунов, Селезнёва, Варлей, Светличная
14. Музыкальная картинка (из «Не может быть») — Вицин
15. «Там, где любовь» (из «12 стульев») — Золотухин
16. Музыкальная пьеса «Погоня» (из «12 стульев») — Крачковская, Даль
17. Музыкальная пьеса «Погоня» (из «Ивана Васильевича») — Даль
18. «Помоги мне» (из «Бриллиантовой руки») — Светличная
19. Марш (из «Кавказской пленницы») — все
20. «Маруся» (из «Ивана Васильевича») — все
21. Музыкальная пьеса «Погоня» (из «Ивана Васильевича») — Даль
22. Музыкальная пьеса «Погоня» (из «Кавказской пленницы») — Варлей, Вицин, Моргунов
23. «Купидон» (из «Не может быть») — Даль
24. Музыкальная пьеса «Погоня в Васюках» (из «12 стульев») — Крамаров
25. Марш (из «Операции Ы») — все
Общее
Полное имя : E:\Фильмы\Эти невероятные музыканты, или Новые сновидения Шурика.mpg
Формат : MPEG-PS
Размер файла : 1,94 Гбайт
Продолжительность : 59 м.
Режим общего битрейта : Переменный
Общий поток : 4637 Кбит/сек
Библиотека кодирования : (c) 1998-2008 Womble Multimedia, Inc. / MPEG Video Wizard (08/2008) / Dec 31 2008
Видео
Идентификатор : 224 (0xE0)
Формат : MPEG Video
Версия формата : Version 2
Профиль формата : [email protected]
Параметр BVOP формата : Да
Параметр матрицы формата : Выборочная
Параметр GOP формата : M=3, N=12
Format_Settings_PictureStructure : Frame
Продолжительность : 59 м.
Вид битрейта : Переменный
Битрейт : 4289 Кбит/сек
Максимальный битрейт : 9396 Кбит/сек
Ширина : 720 пикселей
Высота : 576 пикселей
Соотношение сторон : 4:3
Частота кадров : 25,000 кадров/сек
Стандарт вещания : PAL
Цветовое пространство : YUV
Субдискретизация насыщенности : 4:2:0
Битовая глубина : 8 бит
Тип развёртки : Чересстрочная
Порядок развёртки : Верхнее поле первое
Метод сжатия : С потерями
Бит/(Пиксели*Кадры) : 0.414
Временной код первого кадра : 00:00:00:00
Оригинал временного кода : Group of pictures header
Размер потока : 1,80 Гбайт (92%)
Библиотека кодирования : (c) 1998-2008 Womble Multimedia, Inc. / MPEG Video Wizard (08/2008) / Dec 31 2008
Аудио
Идентификатор : 189 (0xBD)-128 (0x80)
Формат : AC-3
Формат/Информация : Audio Coding 3
Расширение режима : CM (complete main)
Параметр Endianness формата : Big
Режим смешивания : DVD-Video
Продолжительность : 59 м.
Вид битрейта : Постоянный
Битрейт : 256 Кбит/сек
Каналы : 2 канала
Расположение каналов : Front: L R
Частота : 48,0 КГц
Битовая глубина : 16 бит
Метод сжатия : С потерями
Размер потока : 110 Мбайт (6%)
Скриншоты
-
Download / Скачать

Хотите скачать бесплатно? Зарегистрируйтесь на сайте (ссылка на регистрацию). Pirat.ca - самый быстрый торрент трекер в рунете!

Как скачивать  ·   Что такое торрент  ·   Рейтинг и ограничения

Пост 28-Дек-2014 12:50 (спустя 1 час 20 минут)

Топик был перенесен из форума Наше кино (Трюм) в форум Золотая коллекция
kugesan
 

EDVAR

Легенда

Пост 28-Дек-2014 13:14 (спустя 1 час 44 минуты)

[Q] 

Вспомнил о многом,когда смотрел этот фильм когда то... Мне понравилось

_________________
"Как других судить-вы судьи.Как себя-вы адвокаты"
[Профиль]  [ЛС] 

naryshev ®

Флибустьер

8216

Пост 28-Дек-2014 14:03 (спустя 49 минут)

[Q] 

мне откровенно понравилось

_________________
[Профиль]  [ЛС] 

Alien2000

Легенда

Пост 28-Дек-2014 15:37 (спустя 1 час 33 минуты)

[Q] 

Не пришлось такое посмотреть. Качаю.
Большое человеческое спасибо.
Раздающему респект! Лови бочку
[Профиль]  [ЛС] 

RedHawk

Флибустьер

Пост 28-Дек-2014 16:11 (спустя 34 минуты)

[Q] 

тоже не приходилось видеть... Автору респект!!!
[Профиль]  [ЛС] 

olipov

Легенда

Пост 28-Дек-2014 16:37 (спустя 25 минут)

[Q] 

Спасибо!!!
[Профиль]  [ЛС] 

zdimir

Морской Волк

Пост 28-Дек-2014 23:19 (спустя 6 часов)

[Q] 

Спасибо, не знал что такой фильм есть:)
[Профиль]  [ЛС] 

Zloy

Корсар

Пост 29-Дек-2014 08:38 (спустя 9 часов)

[Q] 

Спасибо!!! Супер! С Вашей помощью сделаю новогодний подарок родителям !!!
[Профиль]  [ЛС] 

alenfr

Пост 29-Дек-2014 16:54 (спустя 8 часов)

[Q] 

первый раз вижу (((
качну !!!
РОМ В ТРЮМ !!!!!!

_________________
Кто может — делает, кто не может — учит.
______________________________________
Держи порох сухим, а шпагу острой.
[Профиль]  [ЛС] 

Djiguly

Корсар

102

Пост 29-Дек-2014 17:08 (спустя 13 минут)

[Q] 

Спасибо!!!
Чёй-то, я тоже, не припоминаю...
надо посмотреть,+ очень кстати.С Наступающим!Пираты! bp

_________________
Djiguly
[Профиль]  [ЛС] 

alenfr

Пост 26-Янв-2015 08:07 (спустя 27 дней)

[Q] 

понравилось ,от души !!!!

_________________
Кто может — делает, кто не может — учит.
______________________________________
Держи порох сухим, а шпагу острой.
[Профиль]  [ЛС] 

SHERHAN

683

Пост 26-Янв-2015 10:26 (спустя 2 часа 18 минут)

[Q] 

спасибо!
впервые узнал, что есть такой фильм...

_________________
Рыжий хищник, полосатый,
В меру наглый и усатый,
Днём и ночью он не спит,
Зорко в монитор глядит!
[Профиль]  [ЛС] 

Skala973

Корсар

Пост 10-Май-2015 05:35 (спустя 3 месяца 14 дней)

[Q] 

Видел я этот фильм ещё лет 10 назад. Ну реально, вот вроде бы все фильмы такие суперпопулярные взяли, и микс попытались сделать. А получилось...
Реально - не то. Ну так, для баловства только глянуть.
Любой из фильмов взятых за основу на порядок круче! ИМХО.
Но за раздачу спасибо.
Кстати, вот явный пример как можно кашу маслом испортить.
[Профиль]  [ЛС] 
Показать сообщения:    
Ответить на тему

Текущее время: Сегодня 20:02

Часовой пояс: GMT + 4



Вы не можете начинать темы
Вы не можете отвечать на сообщения
Вы не можете редактировать свои сообщения
Вы не можете удалять свои сообщения
Вы не можете голосовать в опросах
Вы не можете прикреплять файлы к сообщениям
Вы не можете скачивать файлы

▼ Вниз