ML
     
  Уважаемый Гость!
Вы можете поддержать проект и зарегистрироваться у наших партнеров - онлайн-стратегия MyLands. При регистрации в игре Вы получите код, который сможете активировать после регистрации на pirat.ca и получить 1000 дублонов.

Ваш код:
6f9ab67d502902cc72a06c406977ddb589b7f39d
 
     

Воспоминание (Владимир Савельев) [1986 г., документальный, VHSRip]

Ответить на тему
 
Автор
Сообщение

Пост 07-Фев-2015 15:39

[Q] 

Мархуз

-Воспоминание-- Производство: СССР, Киностудия им. А. Довженко
Режиссер: Владимир Савельев
Жанр: документальный
Год выпуска: 1986 г.
Продолжительность: 01:05:57
В ролях: Владимир Высоцкий, Елена Камбурова-Описание: Этот фильм – дань памяти В.Высоцкому. В нем принимает участие Елена Камбурова, звучат песни поэта, присутствует хроника, видеоматериалы, выступления певца, встречи с журналистами.-Качество видео: VHSRip
Контейнер: AVI
Видео кодек: XviD
Аудио кодек: MP3
Видео: 656x 524; 1004 kbps; 25 fps; 0.117 bit/pixel
Аудио: 256 kbps; 2 ch; 48 kHz
Cубтитры: отсутствуют
General
Complete name : D:\Torrent\Vospominanie_[Pirat.ca].torrent.avi
Format : AVI
Format/Info : Audio Video Interleave
File size : 599 MiB
Duration : 1h 5mn
Overall bit rate : 1 270 Kbps
Writing library : VirtualDub build 35390/release
Video
ID : 0
Format : MPEG-4 Visual
Format profile : Advanced [email protected]
Format settings, BVOP : 2
Format settings, QPel : No
Format settings, GMC : No warppoints
Format settings, Matrix : Default (H.263)
Muxing mode : Packed bitstream
Codec ID : XVID
Codec ID/Hint : XviD
Duration : 1h 5mn
Bit rate : 1 004 Kbps
Width : 656 pixels
Height : 524 pixels
Display aspect ratio : 5:4
Frame rate : 25.000 fps
Color space : YUV
Chroma subsampling : 4:2:0
Bit depth : 8 bits
Scan type : Progressive
Compression mode : Lossy
Bits/(Pixel*Frame) : 0.117
Stream size : 474 MiB (79%)
Writing library : XviD 73
Audio
ID : 1
Format : MPEG Audio
Format version : Version 1
Format profile : Layer 3
Mode : Joint stereo
Mode extension : MS Stereo
Codec ID : 55
Codec ID/Hint : MP3
Duration : 1h 5mn
Bit rate mode : Constant
Bit rate : 256 Kbps
Channel(s) : 2 channels
Sampling rate : 48.0 KHz
Compression mode : Lossy
Stream size : 121 MiB (20%)
Alignment : Split accross interleaves
Interleave, duration : 40 ms (1.00 video frame)
Interleave, preload duratio : 500 ms
Writing library : LAME3.96
Раздача с 14.00 до 2.30 (время московское)
Download / Скачать

Хотите скачать бесплатно? Зарегистрируйтесь на сайте (ссылка на регистрацию). Pirat.ca - самый быстрый торрент трекер в рунете!

Как скачивать  ·   Что такое торрент  ·   Рейтинг и ограничения

Пост 07-Фев-2015 15:57 (спустя 18 минут)

Топик был перенесен из форума Наше кино (Трюм) в форум Золотая коллекция
kugesan
 

Pit

Пост 07-Фев-2015 19:09 (спустя 3 часа)

[Q] 

а где раздача-то. Эй, вернитесь на раздачу...
[Профиль]  [ЛС] 

Pit

Пост 14-Мар-2015 10:03 (спустя 1 месяц 6 дней)

[Q] 

О. Скачалось. Стою. Раздаю.
[Профиль]  [ЛС] 
Показать сообщения:    
Ответить на тему

Текущее время: Сегодня 16:31

Часовой пояс: GMT + 4



Вы не можете начинать темы
Вы не можете отвечать на сообщения
Вы не можете редактировать свои сообщения
Вы не можете удалять свои сообщения
Вы не можете голосовать в опросах
Вы не можете прикреплять файлы к сообщениям
Вы не можете скачивать файлы

▼ Вниз