ML
     
  Уважаемый Гость!
Вы можете поддержать проект и зарегистрироваться у наших партнеров - онлайн-стратегия MyLands. При регистрации в игре Вы получите код, который сможете активировать после регистрации на pirat.ca и получить 1000 дублонов.

Ваш код:
5f4e94775bc0501caff7b254e79328d304c817d9
 
     

Белорусский вокзал (Андрей Смирнов) [1971 г., драма, WEB-DLRip, 1080p]

Ответить на тему
 
Автор
Сообщение

Пост 14-Апр-2015 12:27

[Q] 

TERMOS

Легенда

-Белорусский вокзал-- -- Производство: СССР
Режиссер: Андрей Смирнов
Жанр: драма
Год выпуска: 1971 г.
Продолжительность: 01:36:18
В ролях: Евгений Леонов, Анатолий Папанов, Алексей Глазырин, Всеволод Сафонов, Нина Ургант, Николай Волков мл., Любовь Соколова, Маргарита Терехова, Раиса Куркина, Юрий Визбор-Описание: Герои фильма расстались на Белорусском вокзале летом 1945-го. Спустя четверть века они встречаются на похоронах боевого товарища. В их душах с новой силой оживает пережитое. Время не властно над их памятью: ветераны сохранили верность фронтовой дружбе, способность жертвовать собой, неистребимую любовь к жизни.-Сэмпл КиноПоиск-Качество видео: WEB-DLRip
Источник: Mosfilm
Контейнер: MKV
Стандарт разрешения: 1080p
Видео кодек: H.264/AVC
Аудио кодек: AC3
Видео: 1920x1080 at 25.000 fps, ~4000 kbps avg
Аудио: Russian: 48 kHz, AC3, 2/0 (L,R) ch, ~192.00 kbps avg
Код:
General
Unique ID                   : 174057421598521573699230334679344874206 (0x82F23D729A31AA2F93D862D0D8FA02DE)
Complete name               : J:\Uploads\Pirat.Ca\Belorusskiy.Vokzal.1971.2014.1080p.WEB-DL.Rus.mkv
Format                      : Matroska
Format version              : Version 4 / Version 2
File size                   : 2.82 GiB
Duration                    : 1h 36mn
Overall bit rate            : 4 200 Kbps
Encoded date                : UTC 2015-04-14 06:42:56
Writing application         : mkvmerge v6.0.0 ('Coming Up For Air') built on Jan 20 2013 09:52:00
Writing library             : libebml v1.3.0 + libmatroska v1.4.0
Video
ID                          : 1
Format                      : AVC
Format/Info                 : Advanced Video Codec
Format profile              : [email protected]
Format settings, CABAC      : Yes
Format settings, ReFrames   : 4 frames
Codec ID                    : V_MPEG4/ISO/AVC
Duration                    : 1h 36mn
Bit rate                    : 4 000 Kbps
Width                       : 1 920 pixels
Height                      : 1 080 pixels
Display aspect ratio        : 16:9
Frame rate mode             : Constant
Frame rate                  : 25.000 fps
Color space                 : YUV
Chroma subsampling          : 4:2:0
Bit depth                   : 8 bits
Scan type                   : Progressive
Bits/(Pixel*Frame)          : 0.077
Stream size                 : 2.64 GiB (93%)
Writing library             : x264 core 144 r2525kMod 40bb568
Encoding settings           : opencl=1 / cabac=1 / ref=4 / deblock=1:-1:-1 / analyse=0x3:0x113 / me=umh / subme=8 / psy=1 / fade_compensate=0.00 / psy_rd=1.00:0.00 / mixed_ref=1 / me_range=16 / chroma_me=1 / trellis=1 / 8x8dct=1 / cqm=0 / deadzone=21,11 / fast_pskip=1 / chroma_qp_offset=-2 / threads=7 / lookahead_threads=1 / sliced_threads=0 / nr=0 / decimate=1 / interlaced=0 / bluray_compat=0 / constrained_intra=0 / fgo=0 / bframes=3 / b_pyramid=2 / b_adapt=2 / b_bias=0 / direct=3 / weightb=1 / open_gop=0 / weightp=2 / keyint=250 / keyint_min=25 / scenecut=40 / intra_refresh=0 / rc_lookahead=50 / rc=abr / mbtree=1 / bitrate=4000 / ratetol=1.0 / qcomp=0.60 / qpmin=0 / qpmax=69 / qpstep=4 / ip_ratio=1.40 / aq=1:1.00
Language                    : Russian
Default                     : Yes
Forced                      : No
Audio
ID                          : 2
Format                      : AC-3
Format/Info                 : Audio Coding 3
Mode extension              : CM (complete main)
Format settings, Endianness : Big
Codec ID                    : A_AC3
Duration                    : 1h 36mn
Bit rate mode               : Constant
Bit rate                    : 192 Kbps
Channel(s)                  : 2 channels
Channel positions           : Front: L R
Sampling rate               : 48.0 KHz
Bit depth                   : 16 bits
Compression mode            : Lossy
Stream size                 : 132 MiB (5%)
Language                    : Russian
Default                     : Yes
Forced                      : No
• На роль Кирюшина пробовались Армен Джигарханян и Юрий Каюров.
• На роль Приходько пробовался Николай Рыбников.
• На роль Раи пробовались Инна Макарова, Ия Саввина, Людмила Хитяева.
• На роль Дубинского пробовались Николай Гринько и Иннокентий Смоктуновский.
• На роль Харламова пробовались Михаил Ульянов, Владимир Самойлов, Эльдар Рязанов.
Download / Скачать

Хотите скачать бесплатно? Зарегистрируйтесь на сайте (ссылка на регистрацию). Pirat.ca - самый быстрый торрент трекер в рунете!

Как скачивать  ·   Что такое торрент  ·   Рейтинг и ограничения

TERMOS ®

Легенда

11987

Пост 14-Апр-2015 12:44 (спустя 16 минут)

[Q] 

Скоро Великий праздник! Пора релизы готовить...

_________________
[Профиль]  [ЛС] 

Пост 14-Апр-2015 18:23 (спустя 5 часов)

Топик был перенесен из форума Наше кино (Трюм) в форум Золотая коллекция
kugesan
 
Показать сообщения:    
Ответить на тему

Текущее время: Сегодня 15:35

Часовой пояс: GMT + 4



Вы не можете начинать темы
Вы не можете отвечать на сообщения
Вы не можете редактировать свои сообщения
Вы не можете удалять свои сообщения
Вы не можете голосовать в опросах
Вы не можете прикреплять файлы к сообщениям
Вы не можете скачивать файлы

▼ Вниз