ML
     
  Уважаемый Гость!
Вы можете поддержать проект и зарегистрироваться у наших партнеров - онлайн-стратегия MyLands. При регистрации в игре Вы получите код, который сможете активировать после регистрации на pirat.ca и получить 1000 дублонов.

Ваш код:
f612af22ea70acf5cbe90707ac5a076d215f8f7f
 
     

Минин и Пожарский (В.Пудовкин и М.Доллер) [1939 г., история, DVDRip]

Ответить на тему
 
Автор
Сообщение

Пост 19-Янв-2016 21:26

[Q] 

Мархуз

-Минин и Пожарский-- Производство: СССР, киностудия Мосфильм
Режиссеры: В.Пудовкин и М.Доллер
Жанр: история
Год выпуска: 1939 г.
Продолжительность: 02:04:38
В ролях: А.Ханов, Б.Ливанов, Б.Чирков, А.Горюнов, Л.Свердлин, В.Москвин, М.Астангов, М.Глузский-Описание: Начало XVII века. Уже шестой год русская земля под игом интервенции. Осенью 1610 года польские паны обманом захватили Кремль и пытались прорваться на север Руси. Повсюду вспыхивали восстания, но хорошо вооруженные интервенты разбивали разрозненные крестьянские отряды. Освободительное движение возглавили нижегородский купец Кузьма Минин и князь Дмитрий Пожарский.-Качество видео: DVDRip
Контейнер: AVI
Видео кодек: DivX
Аудио кодек: MP3
Видео: 720x544; 1449 kbps; 25 fps; 0.148 bit/pixel
Аудио: 128 kbps; 2 ch; 48 kHz
Cубтитры: отсутствуют
1941 г. - Сталинские премии режиссёрам В.Пудовкину и М. Доллеру, а также актёрам Б. Ливанову, А. Ханову.
General
Complete name : E:\Torrent 2\Minin_i_Pozharskij_[Pirat.ca].torrent.avi
Format : AVI
Format/Info : Audio Video Interleave
File size : 1.37 GiB
Duration : 2h 4mn
Overall bit rate mode : Variable
Overall bit rate : 1 571 Kbps
Writing application : VirtualDubMod 1.5.4.1 (build 2178/release)
Writing library : VirtualDubMod build 2178/release
Video
ID : 0
Format : MPEG-4 Visual
Format settings, BVOP : 1
Format settings, QPel : No
Format settings, GMC : No warppoints
Format settings, Matrix : Default (H.263)
Muxing mode : Packed bitstream
Codec ID : DX50
Codec ID/Hint : DivX 5
Duration : 2h 4mn
Bit rate : 1 449 Kbps
Width : 720 pixels
Height : 544 pixels
Display aspect ratio : 4:3
Frame rate : 25.000 fps
Color space : YUV
Chroma subsampling : 4:2:0
Bit depth : 8 bits
Scan type : Progressive
Compression mode : Lossy
Bits/(Pixel*Frame) : 0.148
Stream size : 1.26 GiB (92%)
Writing library : DivX 6.2.2 (UTC 2006-04-26)
Audio
ID : 1
Format : MPEG Audio
Format version : Version 1
Format profile : Layer 3
Mode : Joint stereo
Mode extension : MS Stereo
Codec ID : 55
Codec ID/Hint : MP3
Duration : 2h 4mn
Bit rate mode : Variable
Bit rate : 109 Kbps
Nominal bit rate : 128 Kbps
Channel(s) : 2 channels
Sampling rate : 48.0 KHz
Compression mode : Lossy
Stream size : 97.4 MiB (7%)
Alignment : Aligned on interleaves
Interleave, duration : 24 ms (0.60 video frame)
Interleave, preload duratio : 516 ms
Writing library : LAME3.97b
Encoding settings : -m j -V 4 -q 2 -lowpass 17 --abr 128
Language : English

Раздача с 14.00 до 2.00 (время московское)
Download / Скачать

Хотите скачать бесплатно? Зарегистрируйтесь на сайте (ссылка на регистрацию). Pirat.ca - самый быстрый торрент трекер в рунете!

Как скачивать  ·   Что такое торрент  ·   Рейтинг и ограничения

Пост 19-Янв-2016 23:00 (спустя 1 час 33 минуты)

Топик был перенесен из форума Наше кино (Трюм) в форум Золотая коллекция
kugesan
 

rebel2

Корсар

Пост 19-Янв-2016 23:32 (спустя 2 часа 5 минут)

[Q] 

Спасибо!!!
[Профиль]  [ЛС] 
Показать сообщения:    
Ответить на тему

Текущее время: Сегодня 00:27

Часовой пояс: GMT + 4



Вы не можете начинать темы
Вы не можете отвечать на сообщения
Вы не можете редактировать свои сообщения
Вы не можете удалять свои сообщения
Вы не можете голосовать в опросах
Вы не можете прикреплять файлы к сообщениям
Вы не можете скачивать файлы

▼ Вниз