ML
     
  Уважаемый Гость!
Вы можете поддержать проект и зарегистрироваться у наших партнеров - онлайн-стратегия MyLands. При регистрации в игре Вы получите код, который сможете активировать после регистрации на pirat.ca и получить 1000 дублонов.

Ваш код:
73640f24f8a0f579e128ea7346fd2db2b1009143
 
     

Сукины дети (Леонид Филатов) [1990 г., Комедия со слезами, DVDRip]

Ответить на тему
 
Автор
Сообщение

Пост 23-Май-2016 23:39

[Q] 

somik

Легенда

-Сукины дети-- Производство: СССР, Фора Фильм, Мосфильм, Ритм
Режиссер: Леонид Филатов
Жанр: Комедия со слезами
Год выпуска: 1990 г.
Продолжительность: 01:32:50
Российская премьера: 1990
В ролях: Владимир Ильин, Александр Абдулов, Лия Ахеджакова, Игорь Воробьев, Евгений Евстигнеев, Людмила Зайцева, Мария Зубарева, Александр Ильин, Сергей Маковецкий, Владимир Самойлов, Лариса Удовиченко, Леонид Филатов, Елена Цыплакова, Станислав Говорухин, Татьяна Кравченко, Вадим Померанцев, Андрей Тартаков, Нина Шацкая, Людмила Полякова-Описание: История «бунта», основанная на реальных событиях из жизни знаменитого Театра на Таганке, когда режиссера Юрия Любимова лишили гражданства. Актеры, забыв о былых обидах и распрях, объединяются в борьбе за свои права, человеческое достоинство и творческую свободу…-Сэмпл КиноПоиск
Качество видео: DVDRip
Контейнер: AVI
Видео кодек: XviD
Аудио кодек: AC3
Видео: 704x544 (1.29:1), 25 fps, XviD MPEG-4 ~1787 kbps avg, 0.19 bit/pixel
Аудио: 48 kHz, AC3 Dolby Digital, 3/2 (L,C,R,l,r) + LFE ch, ~448 kbps
Cубтитры: отсутствуют
«Сукины дети» — кинофильм, драма режиссёра Леонида Филатова 1990 года. В основу сценария положены реальные события, связанные с отъездом из СССР Юрия Любимова. Режиссёрский дебют Леонида Филатова.
Фильм был снят за 24 дня.
В литературном сценарии Юрий Любимов выведен под именем Георгия Петровича Рябинина, а Алла Демидова — под именем Елены Константиновны Гвоздиловой.
Во время съёмок Леонид Филатов перенёс инсульт.
В театре во время нашествия чиновников репетируется «Сон в летнюю ночь» Уильяма Шекспира, чего в реальности не было. Сведений о подготовке новых спектаклей в период, когда Ю. Любимов уже находился за границей (1983), нет. Из спектаклей, готовившихся Юрием Любимовым незадолго до отъезда, «Борис Годунов» Александра Пушкина (1982) был запрещен на стадии премьеры, «Театральный роман» Михаила Булгакова — в процессе репетиций.
Финальная сцена фильма была снята у театра имени Н. В. Гоголя. Вид на Москву был снят с крыши здания НИИР (ул. Казакова, дом 16).
* 1991г. - Гран-при "за художественное воплощение оригинального замысла" на ОРКФ "Кинотавр" в Сочи (Леонид Филатов).
* 1991г. - Гран-при конкурса "Кино для всех" на ОРКФ "Кинотавр" в Сочи (Леонид Филатов).
* 1991г. - Приз за лучшую мужскую роль в конкурсе "Кино для всех" на ОРКФ "Кинотавр" в Сочи (Владимир Ильин)..
Сильный фильм с великолепными актерами
Каждый раз с выходом нового фильма, просматривая только список актеров, невольно побаиваешся начинать смотреть фильм в котором участвуют много любимых тобою служителей Мельпомены. А вдруг при всем звездном составе фильм окажеться скучным, актеры будут тянуть одеяло или режисер не сможет их всех просто раскрыть. А ведь так часто бывает!
Но тут все несколько по иному. К счастью смотрел его в том возрасте, когда задумываешся о сложностях будущего просмотра мало, а вот смотреть хочеться всего и разного.
Абсолютно жизненная летна, в которой переплелись и закулисные театральные разборки, и ярко показанный советский режим с его «перегибами» и обезличиванием, и отношение творческой интелегенции к отдельным составляющим советского строя. Причем заметьте никаких откровенно антисоветских лозунгов и криков.
Просто внутренняя жизнь театра… Да нет скорее внутренняя жизнь любого коллектива, показанная на примере театральной труппы, дабы наиболее ярко показать что бывают не только ситуации, когда отдельный замкнутый коллектив становиться стадом и из людей вылезают все их животное естество (об этом много снято причем есть очень класные фильмы — например, Эксперимент с Морицом {мат}). Тут все иначе — они сплачиваются дабы показать свою жизненную позицию и накопленное недовольство. Да во многом по театральному, с внешними перегибами (попытки самосожжения, скандалы и крики). Но ведь и это не редкость и в простой жизни согласитесь.
Говорить об актерах практически нет смысла поскольку все, включая второплановых персонажей и худ комиссию играют блестяще. Хотя конечно двух актеров не могу не выделить — великий Евгений Евстигнеев и блестяще исполнивший главную роль Владимир Ильин.
Наверняка отличная игра — в большей степени это заслуга всех актеров, но и думаю что здесь немаловажную роль сыграла и личность режисера — дебют Леонида Филатова. Личность многограняя, я бы сказал даже всесторонне одаренная (не люблю бросаться громкими словами типа — ГЕНИЙ). Я бы его любил, даже если бы просто прочитал несколько произведений (сказ про федота стрельца знал наизусть в 14 лет) а тут и режисер и хорошо запомнившаяся роль.
Резюмирую скажу, что фильм стоит посмотреть не только ради актеров. Тут уникально слились воедино закат советской эпохи и отлично промоделированный коллектив сослуживцев (можно сказать соратников), показавших и себе и окружающим что люди — это не быдло и стадо, которым всегда можно понукать.
Есть на мой взгляд лишь одно но этого достойного фильма. Его возможно не поймут киноманы, родившиеся не в советское время и знающие о Советском союзе лишь в субъективных пересказах политологов и домочадцев.
10 из 10
Формат : AVI
Формат/Информация : Audio Video Interleave
Размер файла : 1,46 Гбайт
Продолжительность : 1 ч. 32 м.
Общий поток : 2246 Кбит/сек
Название фильма : Sukiny dety.1990.[pirat.ca]
Программа кодирования : VirtualDubMod 1.5.10.2 (build 2540/release)
Видео
Идентификатор : 0
Формат : MPEG-4 Visual
Профиль формата : Advanced [email protected]
Параметр BVOP формата : 1
Параметр QPel формата : Нет
Параметр GMC формата : Без точки перехода
Параметр матрицы формата : Выборочная
Идентификатор кодека : XVID
Идентификатор кодека/Подсказка : XviD
Продолжительность : 1 ч. 32 м.
Битрейт : 1788 Кбит/сек
Ширина : 704 пикселя
Высота : 544 пикселя
Соотношение сторон : 1,294
Частота кадров : 25,000 кадров/сек
Цветовое пространство : YUV
Субдискретизация насыщенности : 4:2:0
Битовая глубина : 8 бит
Тип развёртки : Прогрессивная
Метод сжатия : С потерями
Бит/(Пиксели*Кадры) : 0.187
Размер потока : 1,16 Гбайт (80%)
Библиотека кодирования : XviD 1.2.1 (UTC 2008-12-04)
Аудио
Идентификатор : 1
Формат : AC-3
Формат/Информация : Audio Coding 3
Расширение режима : CM (complete main)
Параметр Endianness формата : Big
Идентификатор кодека : 2000
Продолжительность : 1 ч. 32 м.
Вид битрейта : Постоянный
Битрейт : 448 Кбит/сек
Каналы : 6 каналов
Расположение каналов : Front: L C R, Side: L R, LFE
Частота : 48,0 КГц
Частота кадров : 31,250 кадров/сек (1536 spf)
Метод сжатия : С потерями
Размер потока : 297 Мбайт (20%)
Выравнивание : Разделение по промежуткам
Продолжительность промежутка : 40 мс. (1,00 видеокадр)
Время предзагрузки промежутка : 500 мс.
Download / Скачать

Хотите скачать бесплатно? Зарегистрируйтесь на сайте (ссылка на регистрацию). Pirat.ca - самый быстрый торрент трекер в рунете!

Как скачивать  ·   Что такое торрент  ·   Рейтинг и ограничения

TrojanSS

Морской Волк

Пост 24-Май-2016 00:33 (спустя 53 минуты)

[Q] 

Спасибо, такое произведение в архив Лови бочку
[Профиль]  [ЛС] 

Пост 24-Май-2016 10:32 (спустя 9 часов)

Топик был перенесен из форума Наше кино (Трюм) в форум Золотая коллекция
Андря
 

Oksika

Флибустьер

Пост 24-Май-2016 21:23 (спустя 20 часов)

[Q] 

Интересно! Посмотрим!
Спасибо!!!
[Профиль]  [ЛС] 
Показать сообщения:    
Ответить на тему

Текущее время: Сегодня 22:35

Часовой пояс: GMT + 4



Вы не можете начинать темы
Вы не можете отвечать на сообщения
Вы не можете редактировать свои сообщения
Вы не можете удалять свои сообщения
Вы не можете голосовать в опросах
Вы не можете прикреплять файлы к сообщениям
Вы не можете скачивать файлы

▼ Вниз