ML
     
  Уважаемый Гость!
Вы можете поддержать проект и зарегистрироваться у наших партнеров - онлайн-стратегия MyLands. При регистрации в игре Вы получите код, который сможете активировать после регистрации на pirat.ca и получить 1000 дублонов.

Ваш код:
5af7de75d3db09b6a37bc8bab71b0e87ccde73d6
 
     

Гамлет (Григорий Козинцев) [1964 г., трагедия, DVDRip-AVC]

Ответить на тему
 
Автор
Сообщение

Пост 20-Июн-2016 02:13

[Q] 

somik

Легенда

-Гамлет-- Производство: СССР, Ленфильм
Режиссер: Григорий Козинцев
Жанр: трагедия
Год выпуска: 1964 г.
Продолжительность: 02:22:42
Российская премьера: 24 июня 1964
Дата выхода DVD: 8 апреля 2010, «Lizard Cinema Trade»
В ролях: Иннокентий Смоктуновский (Гамлет), Михаил Названов (король), Эльза Радзиня (королева), Юрий Толубеев (Полоний), Анастасия Вертинская (Офелия), Вадим Медведев (Гильденстерн), Владимир Эренберг (Горацио), Степан Олексенко (Лаэрт), Игорь Дмитриев (Розенкранц), Григорий Гай, Рейно Арен, А. Кревалид (Фортинбрас, принц норвежский), Григорий Гай (призрак отца, первый актёр), Антс Лаутер (священник), Рейн Арен (второй актер, Луцианус), Юрий Беркун (третий актер), Виктор Колпаков (могильщик), Владимир Волчик(офицер из охраны короля), Николай Кузьмин (телохранитель короля), Татьяна Оппенгейм, Кирилл Чернозёмов, Виталий Щенников, Александр Чекаевский, Гунар Килгас-Описание: Экранизация одноименной трагедии британского драматурга Уильяма Шекспира. Действие пьесы разворачивается в среде высшего общества средневековой Дании.
IMDb: 8.40 (1827)-Сэмпл КиноПоиск
Качество видео: DVDRip-AVC
Контейнер: MKV
Видео кодек: MPEG4 AVC
Аудио кодек: AC3
Видео: 1-я серия - [email protected] (2.3:1), 25 fps, AVC (H.264) ~1282 kbps avg, 0.165 bit/pixel, 2-я серия - [email protected] (2.3:1), 25 fps, AVC (H.264) ~1382 kbps avg, 0.178 bit/pixel
Аудио: 48 kHz, AС3, 1 ch, ~128 kbps avg
Cубтитры: отсутствуют
Фильм снят по мотивам пьесы Уильяма Шекспира «Гамлет» (The Tragical Historie of Hamlet, Prince of Denmarke, 1603).
Лучший фильм по опросу журнала «Советский экран» в 1965 году.
У режиссера Григория Козинцева не было сомнений в вопросе, кто должен играть Гамлета. Григорий Михайлович увидел молодого актёра Смоктуновского в учебном фильме «До будущей весны» режиссёра Соколова и сразу был покорён его необычайной творческой индивидуальностью.
Приз на МКФ в Сан-Франциско.
Золотой глобус, 1967 год
Номинации (1):
Лучший иностранный фильм — «СССР»
Британская академия, 1966 год
Номинации (2):
Лучший фильм
Лучший иностранный актер (Иннокентий Смоктуновский)
Венецианский кинофестиваль, 1964 год
Победитель (1):
Специальный приз жюри
Номинации (1):
Золотой лев
Порвалась дней связующая нить…
«Но вечно, вечно плещет море бед.
В него мы стрелы мечем — в сито просо,
Отсеивая призрачный ответ
От вычурного этого вопроса».
В. Высоцкий, «Мой Гамлет»
Трагедия принца Датского из всех Шекспировских пьес представляется мне лучшей… и самой загадочной. В ней есть некая таинственная сила, позволяющая «Гамлету» представать все в новом обличье, попадая в руки тем или иным творцам. Недосказанность образов и идей порождает все новые трактовки.
Однозначности нет — есть искренность и поэтическая острота чувств. В пьесе хватает переменных, чтобы, подставляя значения, получить множество трактовок. Был ли безумен Гамлет? Любил ли Офелию? Знала ли Гертруда об убийстве? Любила ли Клавдия? Что за отношения у Гамлета с Горацио? Почему он так жесток к Розенкранцу и Гильденстерну? Таких вопросов несколько десятков. Идеальная пьеса для переосмысления.
Фильм Козинцева представляет Гамлета человеком, пребывающим, скорее всего, в глубокой депрессии. Той, что называют большой, клинической, что является психическим расстройством, но которую сложно назвать безумием. Ясность ума у него сохранна.
Смоктуновский создал Гамлета не столько одержимого местью, сколько страдающего от черной тоски, причину которой он сам не понимает… Призрак направил его помыслы на месть, и принц поверил, что месть может успокоить его надломленную душу. Человек чувствительный, утонченный, но недобрый и подозрительный, Гамлет губит всех вокруг себя, считая (из-за депрессии), что жизнь ужасна и только страх смерти удерживает всех от самоубийства. Он не верит в любовь, в радость… уличает во лжи всех, кто считает иначе. Гамлет эгоцентрист и мотивы других людей ему в голову не приходит рассматривать. Он обречен с первых кадров, о чем говорит неумолимое море, коптящий факел, музыка Шостаковича.
В фильме вообще потрясающе выдержано настроение, стилистика. В каждой сцене — обреченность, все зритель видит таким, как видит Гамлет — суровым, трагичным, безнадежным и несколько искусственным. Даже радость королевы в день свадьбы, даже радость Горацио от встречи с другом-принцем — все мимолетно, все сминается и отбрасывается. Свет, который исходит от Офелии становится призрачным и пугающим в ее тихом сумасшествии — и меркнет.
Жаль, Горацио не так ярок, как мог бы быть, его в большинстве постановок и так убирают в тень, видимо, не очень понимая, зачем нужен образ друга принца. Здесь нет одного ключевого диалога, по пьесе Горацио собирается допить яд из кубка, чтобы умереть вместе с Гамлетом, не в силах отпустить его в страну мертвых одного, но тот запрещает ему. Такие чувства к принцу со стороны друга не позволили бы показать его одиночество. Гамлет — один, он — черный силуэт на светлом фоне двух женщин, любящей матери и влюбленной девушки. Офелия — хрусталь. Хрупка и телом, и сознанием — она и бьется легко. Гертруда — парча, она роскошна, мягка, ей не хватает твердости, стальной опоры…
Этот фильм — один из эталонных.
10 из 10
Общее
Уникальный идентификатор : 216053468673390466982505402768144782425 (0xA28A626DFB35808481E50567569CD459)
Полное имя : C:\герои 7\Гамлет\Hamlet.[pirat.ca]\1.[pirat.ca].mkv
Формат : Matroska
Версия формата : Version 2
Размер файла : 723 Мбайт
Продолжительность : 1 ч. 11 м.
Общий поток : 1412 Кбит/сек
Дата кодирования : UTC 2013-01-05 06:59:47
Программа кодирования : mkvmerge v5.8.0 ('No Sleep / Pillow') built on Sep 2 2012 15:37:04
Библиотека кодирования : libebml v1.2.3 + libmatroska v1.3.0
Видео
Идентификатор : 1
Формат : AVC
Формат/Информация : Advanced Video Codec
Профиль формата : [email protected]
Параметр CABAC формата : Да
Параметр ReFrames формата : 8 кадров
Идентификатор кодека : V_MPEG4/ISO/AVC
Продолжительность : 1 ч. 11 м.
Битрейт : 1282 Кбит/сек
Ширина : 710 пикселей
Высота : 438 пикселей
Соотношение сторон : 2,35:1
Соотношение сторон в оригинале : 2,35:1
Режим частоты кадров : Постоянный
Частота кадров : 25,000 кадров/сек
Цветовое пространство : YUV
Субдискретизация насыщенности : 4:2:0
Битовая глубина : 8 бит
Тип развёртки : Прогрессивная
Бит/(Пиксели*Кадры) : 0.165
Размер потока : 643 Мбайт (89%)
Библиотека кодирования : x264 core 129 r2230 1cffe9f
Настройки программы : cabac=1 / ref=8 / deblock=1:-2:-1 / analyse=0x3:0x133 / me=umh / subme=9 / psy=1 / psy_rd=1.00:0.10 / mixed_ref=1 / me_range=16 / chroma_me=1 / trellis=2 / 8x8dct=1 / cqm=0 / deadzone=21,11 / fast_pskip=1 / chroma_qp_offset=-3 / threads=3 / lookahead_threads=1 / sliced_threads=0 / nr=0 / decimate=1 / interlaced=0 / bluray_compat=0 / constrained_intra=0 / bframes=3 / b_pyramid=2 / b_adapt=2 / b_bias=0 / direct=3 / weightb=1 / open_gop=0 / weightp=2 / keyint=250 / keyint_min=25 / scenecut=40 / intra_refresh=0 / rc_lookahead=60 / rc=2pass / mbtree=1 / bitrate=1282 / ratetol=1.0 / qcomp=0.60 / qpmin=10 / qpmax=51 / qpstep=4 / cplxblur=20.0 / qblur=0.5 / vbv_maxrate=50000 / vbv_bufsize=50000 / nal_hrd=none / ip_ratio=1.40 / aq=1:1.00
Default : Да
Forced : Нет
Аудио
Идентификатор : 2
Формат : AC-3
Формат/Информация : Audio Coding 3
Расширение режима : CM (complete main)
Параметр Endianness формата : Big
Идентификатор кодека : A_AC3
Продолжительность : 1 ч. 11 м.
Вид битрейта : Постоянный
Битрейт : 128 Кбит/сек
Каналы : 1 канал
Расположение каналов : Front: C
Частота : 48,0 КГц
Частота кадров : 31,250 кадров/сек (1536 spf)
Метод сжатия : С потерями
Задержка видео : 509 мс.
Размер потока : 65,6 Мбайт (9%)
Default : Да
Forced : Нет
Общее
Уникальный идентификатор : 215345201413363871515750947007893993534 (0xA201FA2859E572C09B2A39013635F83E)
Полное имя : C:\герои 7\Гамлет\Hamlet.[pirat.ca]\2.[pirat.ca].mkv
Формат : Matroska
Версия формата : Version 2
Размер файла : 768 Мбайт
Продолжительность : 1 ч. 11 м.
Общий поток : 1512 Кбит/сек
Дата кодирования : UTC 2013-01-05 07:00:19
Программа кодирования : mkvmerge v5.8.0 ('No Sleep / Pillow') built on Sep 2 2012 15:37:04
Библиотека кодирования : libebml v1.2.3 + libmatroska v1.3.0
Видео
Идентификатор : 1
Формат : AVC
Формат/Информация : Advanced Video Codec
Профиль формата : [email protected]
Параметр CABAC формата : Да
Параметр ReFrames формата : 8 кадров
Идентификатор кодека : V_MPEG4/ISO/AVC
Продолжительность : 1 ч. 11 м.
Битрейт : 1382 Кбит/сек
Ширина : 708 пикселей
Высота : 438 пикселей
Соотношение сторон : 2,25:1
Режим частоты кадров : Постоянный
Частота кадров : 25,000 кадров/сек
Цветовое пространство : YUV
Субдискретизация насыщенности : 4:2:0
Битовая глубина : 8 бит
Тип развёртки : Прогрессивная
Бит/(Пиксели*Кадры) : 0.178
Размер потока : 688 Мбайт (90%)
Библиотека кодирования : x264 core 129 r2230 1cffe9f
Настройки программы : cabac=1 / ref=8 / deblock=1:-2:-1 / analyse=0x3:0x133 / me=umh / subme=9 / psy=1 / psy_rd=1.00:0.10 / mixed_ref=1 / me_range=16 / chroma_me=1 / trellis=2 / 8x8dct=1 / cqm=0 / deadzone=21,11 / fast_pskip=1 / chroma_qp_offset=-3 / threads=3 / lookahead_threads=1 / sliced_threads=0 / nr=0 / decimate=1 / interlaced=0 / bluray_compat=0 / constrained_intra=0 / bframes=3 / b_pyramid=2 / b_adapt=2 / b_bias=0 / direct=3 / weightb=1 / open_gop=0 / weightp=2 / keyint=250 / keyint_min=25 / scenecut=40 / intra_refresh=0 / rc_lookahead=60 / rc=2pass / mbtree=1 / bitrate=1382 / ratetol=1.0 / qcomp=0.60 / qpmin=10 / qpmax=51 / qpstep=4 / cplxblur=20.0 / qblur=0.5 / vbv_maxrate=50000 / vbv_bufsize=50000 / nal_hrd=none / ip_ratio=1.40 / aq=1:1.00
Default : Да
Forced : Нет
Аудио
Идентификатор : 2
Формат : AC-3
Формат/Информация : Audio Coding 3
Расширение режима : CM (complete main)
Параметр Endianness формата : Big
Идентификатор кодека : A_AC3
Продолжительность : 1 ч. 11 м.
Вид битрейта : Постоянный
Битрейт : 128 Кбит/сек
Каналы : 1 канал
Расположение каналов : Front: C
Частота : 48,0 КГц
Частота кадров : 31,250 кадров/сек (1536 spf)
Метод сжатия : С потерями
Задержка видео : 869 мс.
Размер потока : 65,1 Мбайт (8%)
Default : Да
Forced : Нет
Download / Скачать

Хотите скачать бесплатно? Зарегистрируйтесь на сайте (ссылка на регистрацию). Pirat.ca - самый быстрый торрент трекер в рунете!

Как скачивать  ·   Что такое торрент  ·   Рейтинг и ограничения

Пост 20-Июн-2016 08:48 (спустя 6 часов)

Топик был перенесен из форума Наше кино (Трюм) в форум Золотая коллекция
Андря
 

jumpersky

Легенда

Пост 20-Июн-2016 12:23 (спустя 10 часов)

[Q] 

слов нет Лови бочку классный фильм
[Профиль]  [ЛС] 
Показать сообщения:    
Ответить на тему

Текущее время: Сегодня 14:14

Часовой пояс: GMT + 4



Вы не можете начинать темы
Вы не можете отвечать на сообщения
Вы не можете редактировать свои сообщения
Вы не можете удалять свои сообщения
Вы не можете голосовать в опросах
Вы не можете прикреплять файлы к сообщениям
Вы не можете скачивать файлы

▼ Вниз