ML
     
  Уважаемый Гость!
Вы можете поддержать проект и зарегистрироваться у наших партнеров - онлайн-стратегия MyLands. При регистрации в игре Вы получите код, который сможете активировать после регистрации на pirat.ca и получить 1000 дублонов.

Ваш код:
500cb7bd8d2cec9a8aba647a87ce41c4b76f06bd
 
     

Вольный ветер (Леонид Трауберг, Андрей Тутышкин) [1961 г., мюзикл, комедия, DVDRip]

Ответить на тему
 
Автор
Сообщение

Пост 02-Июл-2016 19:29

[Q] 

somik

Легенда

-Вольный ветер-- Производство: СССР, Мосфильм
Режиссер: Леонид Трауберг, Андрей Тутышкин
Жанр: мюзикл, комедия
Год выпуска: 1961 г.
Продолжительность: 01:19:23
Российская премьера: 3 июля 1961
Дата выхода DVD: 8 апреля 2010, «Мастер Тэйп»
В ролях: Лионелла Скирда, Надежда Румянцева, Александр Лазарев, Николай Гриценко, Марк Перцовский, Юрий Медведев, Эрнест Зорин, Вера Енютина, Лариса Пашкова, Михаил Яншин, Петр Репнин, Сергей Мартинсон, Елизавета Ауэрбах, Александр Граве-Описание: Портовый городок одной из маленьких южных стран. После ухода фашистских оккупантов безлюдны причалы порта, не дымят пароходы, стоят грузовые краны. Боясь возмездия за сотрудничество с врагами, хозяин порта Георг Стан бежал из города. Переждав некоторое время и заручившись поддержкой местных властей, Стан тем не менее возвращается — и в порту начинаются погрузочные работы.
Пока идет погрузка апельсинов, моряк Янго и красавица Стелла готовятся к свадьбе. Неожиданно Стан делает девушке предложение и обманным путем вынуждает ее дать согласие. Узнав об обмане, девушка убегает к Янго. Обнаружив в ящиках трюма оружие, предназначенное для поддержания фашизма, герои делают все возможное, чтобы ящики легли на дно моря.-Сэмпл КиноПоиск
Качество видео: DVDRip
Контейнер: AVI
Видео кодек: DivX
Аудио кодек: MP3
Видео: 688x528 (1.30:1), 25 fps, DivX Codec 6.8.3 ~2262 kbps avg, 0.25 bit/pixel
Аудио: 48 kHz, MPEG Layer 3, 2 ch, ~192.00 kbps avg
Cубтитры: отсутствуют
В фильме поют
Галина Вишневская
А. Котова
С. Бруцин
Евгений Кибкало
Г. Панков
Алексей Степутенко
Артур Эйзен
Съёмочная группа
Авторы сценария:
Виктор Винников
Владимир Крахт
Виктор Типот
Режиссёр-постановщик: Леонид Трауберг
Сопостановщик: Андрей Тутышкин
Оператор-постановщик: Аркадий Кольцатый
Композитор: Исаак Дунаевский
Художник-постановщик: Абрам Фрейдин
http://www.imdb.com/title/tt0176297/ - 6,6/10
Пепита — дьяболо!
Песни Исаака Осиповича Дунаевского необычайно популярны в России: «Широка страна моя родная», «А ну-ка песню нам пропой, весёлый ветер», «Товарищ, товарищ, в труде и в бою», «Я по свету немало хаживал», «Каховка, Каховка…», «Капитан, капитан, улыбнитесь», «Ой, цветёт калина…». Всё это — лишь одна сотая часть созданного Дунаевским. В памяти каждого, кто прочитает хотя бы первую строчку любой его песни, тотчас начинает звучать знакомая музыка. И таких песен-хитов у композитора — более ста! А ещё им были написаны 12 оперетт, три балета, музыка к 28 кинофильмам — наследие, которому может позавидовать любой нынешний композитор. «Вольный ветер» — оперетта, написанная в 1947 году. 22 августа того же года состоялась премьера. Дунаевский писал её во всеоружии таланта, мастерства, опыта, что же касается либретто, то оно поднимает большую патриотическую тему, тему народа, борющегося за свою независимость и свободу. Эта тема великолепно выражена в яркой песне «О вольном ветре», являющейся лейтмотивом этой оперетты. По своей форме «Вольный ветер» — большая оперетта. В ней всё выражено музыкой — и героическая линия (рассказ Янго), и лирическая (дуэт Стеллы и Янго), и каскадная (номер Пепиты и ее дуэты с Микки), и вся буффонная линия (дуэт Фомы и Филиппа и др.). В этой оперетте имеются роли для всех поколений артистов, что бывает, к сожалению, очень редко.
Неудивительно, что оперетта экранизировалась дважды: в 1961 и 1983 годах (двухсерийная лента режиссёра Яна Фрида). Не хотел бы сравнивать две эти картины по той простой причине, что они хороши обе, но каждая — по-своему. Время — главный персонаж картины. Оно «играет», пожалуй, главную роль на съёмочной площадке, формируя характеры персонажей, и внося изменения в авторское произведение. В этом плане работа Леонида Трауберга и Андрея Тутышкина ближе к первоисточнику, потому что буквально «дышит» временем перемен. Кроме того, очень приятно наблюдать за игрой актёров старшего поколения — таких молодых и таких одухотворённых! На мой взгляд, Пепита Надежды Румянцевой — самый яркий персонаж картины. Ведь это не девушка — это настоящий вулкан страстей! Самое удивительное, что персонаж Пепиты сильно перекликается с Тосей из «Девчат», над которой Надежда Румянцева работала примерно в это же время. Кто знает, быть может многие незабываемые сцены с Николаем Рыбниковым родились, как отклик на персонаж из «Вольного ветра»? Если Румянцева — звёздочка фильма, то все остальные актёры — безусловно ярчайшее созвездие: Лионелла Пырьева, Александр Лазарев, Юрий Медведев, Михаил Яншин, Сергей Мартинсон, Николай Гриценко. Фильм по своей сути, прежде всего, музыкальный, поэтому обязательно нужно вспомнить о тех, чьими головами «пели» персонажи: Стелла — Галина Вишневская, Янко — Евгений Кикбало. Чудесный душевный фильм!
Общее
Полное имя : J:\Вольный ветер\Volnyj veter.DVDRip.[pirat.ca].avi
Формат : AVI
Формат/Информация : Audio Video Interleave
Размер файла : 1,37 Гбайт
Продолжительность : 1 ч. 19 м.
Общий поток : 2464 Кбит/сек
Название фильма : Volnyj veter.DVDRip.[pirat.ca]
Программа кодирования : VirtualDubModRus 1.5.10.2 (build 2542/release)
Видео
Идентификатор : 0
Формат : MPEG-4 Visual
Параметр BVOP формата : 1
Параметр QPel формата : Нет
Параметр GMC формата : Без точки перехода
Параметр матрицы формата : Default (H.263)
Режим смешивания : Сжатый битовый поток
Идентификатор кодека : DX50
Идентификатор кодека/Подсказка : DivX 5
Продолжительность : 1 ч. 19 м.
Битрейт : 2263 Кбит/сек
Ширина : 688 пикселей
Высота : 528 пикселей
Соотношение сторон : 4:3
Частота кадров : 25,000 кадров/сек
Цветовое пространство : YUV
Субдискретизация насыщенности : 4:2:0
Битовая глубина : 8 бит
Тип развёртки : Прогрессивная
Метод сжатия : С потерями
Бит/(Пиксели*Кадры) : 0.249
Размер потока : 1,25 Гбайт (92%)
Библиотека кодирования : DivX 6.8.3-6.8.4 (UTC 2008-06-07)
Аудио
Идентификатор : 1
Формат : MPEG Audio
Версия формата : Version 1
Профиль формата : Layer 3
Режим : Joint stereo
Расширение режима : MS Stereo
Идентификатор кодека : 55
Идентификатор кодека/Подсказка : MP3
Продолжительность : 1 ч. 19 м.
Вид битрейта : Постоянный
Битрейт : 192 Кбит/сек
Каналы : 2 канала
Частота : 48,0 КГц
Метод сжатия : С потерями
Размер потока : 109 Мбайт (8%)
Выравнивание : Соединение по промежуткам
Продолжительность промежутка : 40 мс. (1,00 видеокадр)
Время предзагрузки промежутка : 504 мс.
Библиотека кодирования : LAME3.97
Настройки программы : -m j -V 4 -q 1 -b 192
Download / Скачать

Хотите скачать бесплатно? Зарегистрируйтесь на сайте (ссылка на регистрацию). Pirat.ca - самый быстрый торрент трекер в рунете!

Как скачивать  ·   Что такое торрент  ·   Рейтинг и ограничения

Пост 02-Июл-2016 20:32 (спустя 1 час 2 минуты)

Топик был перенесен из форума Наше кино (Трюм) в форум Золотая коллекция
Андря
 
Показать сообщения:    
Ответить на тему

Текущее время: Сегодня 01:48

Часовой пояс: GMT + 4



Вы не можете начинать темы
Вы не можете отвечать на сообщения
Вы не можете редактировать свои сообщения
Вы не можете удалять свои сообщения
Вы не можете голосовать в опросах
Вы не можете прикреплять файлы к сообщениям
Вы не можете скачивать файлы

▼ Вниз