ML
     
  Уважаемый Гость!
Вы можете поддержать проект и зарегистрироваться у наших партнеров - онлайн-стратегия MyLands. При регистрации в игре Вы получите код, который сможете активировать после регистрации на pirat.ca и получить 1000 дублонов.

Ваш код:
0fcd44bd35319f69313aa6e53b31c51cbff1c942
 
     

Королевство кривых зеркал (Александр Роу) [1963 г., фэнтези, семейный, BDRip-AVC]

Ответить на тему
 
Автор
Сообщение

Пост 02-Июл-2016 21:29

[Q] 

somik

Легенда

-Королевство кривых зеркал-- Производство: СССР, Студия им. Горького
Режиссер: Александр Роу
Жанр: фэнтези, семейный
Год выпуска: 1963 г.
Продолжительность: 01:14:58
Российская премьера: 28 августа 1963
Дата выхода DVD: 5 ноября 2001, «Ruscico»
Дата выхода Blu-Ray: 20 августа 2012, «Новый Диск»-В ролях: Ольга Юкина, Татьяна Юкина, Татьяна Барышева, Анатолий Кубацкий, Андрей Файт, Лидия Вертинская, Аркадий Цинман, Андрей Стапран, Иван Кузнецов, Георгий Милляр...-Описание: Однажды школьница Оля взглянула в самое обычное зеркало, которое висело дома в прихожей, и неожиданно отправилась путешествовать в волшебную зазеркальную страну вместе со своим отражением — озорной девочкой Яло. Вдвоем им удается вызволить из тюрьмы мальчика Гурда и разрушить злые чары кривых зеркал…-Сэмпл КиноПоиск
Качество видео: BDRip-AVC
Контейнер: MKV
Видео кодек: MPEG4 AVC
Аудио кодек: AC3
Видео: 768x576 (4:3), 25 fps, H264 ~ 2330 kbps avg, 0.211 bit/pixel
Аудио: 48 kHz, Dolby AC3 5.1, 448 kbps
Cубтитры: русские, английские
Формат субтитров: softsub (SRT)
Доп. информация о субтитрах: включаемые
В 2006 году к 100-летию со дня рождения Александра Роу Почтой России была выпущена серия юбилейных почтовых конвертов с рисунком, воспроизводящим кадр из фильма «Королевство кривых зеркал» и портретом Александра Роу на марке.
Съёмки фильма проводились в Крыму (Ялта, Симеиз, Красный Камень). В кадре видны: павильон Ялтинской киностудии на Поликуровском холме, дорога в Заповедно-охотничьем хозяйстве.
Исполнительницы главных ролей Ольга Юкина и Татьяна Юкина попали в этот фильм случайно. За лето съемок они получили 80 рублей, бесплатный проезд из Москвы до Крыма и обратно, бесплатное питание.
В 1985 году Московским издательством «Всесоюзное бюро пропаганды киноискусства» по мотивам фильма «Королевство кривых зеркал» внесерийным изданием была издана книга (комикс) в мягкой обложке.
Андрею Файту, сыгравшему роль Нушрока, для работы над ролью потребовалась хорошая физическая подготовка: «В «Королевстве кривых зеркал» в возрасте шестидесяти лет я скакал верхом на лошади на продолжении почти всей картины. Скакал иногда по крутым, каменистым, не совсем безопасным тропам. Но падал на всём скаку через голову лошади не я. Это делал дублёр. И мне отнюдь не стыдно. Трюкач рискует во много раз меньше и делает он своё дело точнее и лучше. А техника съёмки сейчас на таком уровне, что зритель никогда не заметит подмены. Это был последний фильм, потребовавший от меня спортивных навыков».
Просто шедевр
Люблю сказки Роу. А это уж очень поучительная сказка. Она заставила меня с малых лет задуматься над тем, что же значит «посмотреть на себя со стороны».
И действительно, девочка-двойник Оли (Яло) из Королевства кривых зеркал делает так же и начинает раздражать очень быстро. А значит, создателям сказки главная идея удалась и своей педагогической цели они достигают.
Персонажи колоритные. Гениальный Милляр играет две роли, обе удачно. Остальные (Йагупоп, Абаж…) тоже не подкачали. Здесь и дворцовые интриги, и в меру приключения, даже песня в конце.
Девчонкам сопереживаешь. Даже трудно поверить, что главные роли им достались случайно.
Отличный фильм. Для аудитории +0.
Общее
Уникальный идентификатор : 220778795077638969779452599260500949955 (0xA61873023780C634964A2A68F2AF7BC3)
Полное имя : J:\Королевство кривых зеркал\Korolevstvo krivyh zerkal.1963.BDRip-AVC.[pirat.ca].mkv
Формат : Matroska
Версия формата : Version 2
Размер файла : 1,46 Гбайт
Продолжительность : 1 ч. 14 м.
Общий поток : 2780 Кбит/сек
Название фильма : Korolevstvo krivyh zerkal.1963.BDRip-AVC
Дата кодирования : UTC 2016-07-02 17:06:19
Программа кодирования : mkvmerge v5.3.0 ('I could have danced') built on Feb 9 2012 10:38:07
Библиотека кодирования : libebml v1.2.3 + libmatroska v1.3.0
Видео
Идентификатор : 1
Формат : AVC
Формат/Информация : Advanced Video Codec
Профиль формата : [email protected]
Параметр CABAC формата : Да
Параметр ReFrames формата : 10 кадров
Идентификатор кодека : V_MPEG4/ISO/AVC
Продолжительность : 1 ч. 14 м.
Битрейт : 2330 Кбит/сек
Ширина : 768 пикселей
Высота : 576 пикселей
Соотношение сторон : 4:3
Режим частоты кадров : Постоянный
Частота кадров : 25,000 кадров/сек
Цветовое пространство : YUV
Субдискретизация насыщенности : 4:2:0
Битовая глубина : 8 бит
Тип развёртки : Прогрессивная
Бит/(Пиксели*Кадры) : 0.211
Размер потока : 1,19 Гбайт (82%)
Заголовок : Источник BDRemux
Библиотека кодирования : x264 core 130 r2273 b3065e6
Настройки программы : cabac=1 / ref=10 / deblock=1:-3:-2 / analyse=0x3:0x113 / me=umh / subme=9 / psy=1 / psy_rd=1.00:0.15 / mixed_ref=1 / me_range=32 / chroma_me=1 / trellis=1 / 8x8dct=1 / cqm=0 / deadzone=21,11 / fast_pskip=1 / chroma_qp_offset=-3 / threads=3 / lookahead_threads=1 / sliced_threads=0 / nr=0 / decimate=1 / interlaced=0 / bluray_compat=0 / constrained_intra=0 / bframes=10 / b_pyramid=2 / b_adapt=1 / b_bias=0 / direct=3 / weightb=1 / open_gop=0 / weightp=2 / keyint=250 / keyint_min=25 / scenecut=40 / intra_refresh=0 / rc_lookahead=60 / rc=2pass / mbtree=1 / bitrate=2330 / ratetol=1.0 / qcomp=0.60 / qpmin=0 / qpmax=69 / qpstep=4 / cplxblur=20.0 / qblur=0.5 / ip_ratio=1.40 / aq=1:1.00
Язык : Russian
Default : Да
Forced : Нет
Аудио
Идентификатор : 2
Формат : AC-3
Формат/Информация : Audio Coding 3
Расширение режима : CM (complete main)
Параметр Endianness формата : Big
Идентификатор кодека : A_AC3
Продолжительность : 1 ч. 14 м.
Вид битрейта : Постоянный
Битрейт : 448 Кбит/сек
Каналы : 6 каналов
Расположение каналов : Front: L C R, Side: L R, LFE
Частота : 48,0 КГц
Частота кадров : 31,250 кадров/сек (1536 spf)
Метод сжатия : С потерями
Размер потока : 240 Мбайт (16%)
Заголовок : Источник BDRemux Dolby Digital 5,1 448kb
Язык : Russian
Default : Да
Forced : Нет
Текст #1
Идентификатор : 3
Формат : UTF-8
Идентификатор кодека : S_TEXT/UTF8
Идентификатор кодека/Информация : UTF-8 Plain Text
Заголовок : Источник BDRemux SoftSub (srt)
Язык : Russian
Default : Нет
Forced : Нет
Текст #2
Идентификатор : 4
Формат : UTF-8
Идентификатор кодека : S_TEXT/UTF8
Идентификатор кодека/Информация : UTF-8 Plain Text
Заголовок : Источник BDRemux SoftSub (srt)
Язык : English
Default : Нет
Forced : Нет
Меню
00:00:00.000 : :Chapter 01
00:02:27.440 : :Chapter 02
00:08:42.760 : :Chapter 03
00:19:50.400 : :Chapter 04
00:28:44.160 : :Chapter 05
00:39:34.760 : :Chapter 06
00:49:47.400 : :Chapter 07
00:58:29.640 : :Chapter 08
01:10:31.560 : :Chapter 09
Download / Скачать

Хотите скачать бесплатно? Зарегистрируйтесь на сайте (ссылка на регистрацию). Pirat.ca - самый быстрый торрент трекер в рунете!

Как скачивать  ·   Что такое торрент  ·   Рейтинг и ограничения

Alien2000

Легенда

Пост 03-Июл-2016 00:22 (спустя 2 часа 52 минуты)

[Q] 

Лови бочку
[Профиль]  [ЛС] 

Slavkovich_

Пост 03-Июл-2016 00:32 (спустя 10 минут)

[Q] 

прекрасная сказка
[Профиль]  [ЛС] 

jumpersky

Легенда

Пост 03-Июл-2016 18:56 (спустя 18 часов)

[Q] 

Лови бочку чудненько!
[Профиль]  [ЛС] 

urik

Морской Волк

Пост 06-Июл-2016 13:40 (спустя 2 дня 18 часов)

[Q] 

Спасибо!!! Автору респект!!!
[Профиль]  [ЛС] 
Показать сообщения:    
Ответить на тему

Текущее время: Сегодня 02:13

Часовой пояс: GMT + 4



Вы не можете начинать темы
Вы не можете отвечать на сообщения
Вы не можете редактировать свои сообщения
Вы не можете удалять свои сообщения
Вы не можете голосовать в опросах
Вы не можете прикреплять файлы к сообщениям
Вы не можете скачивать файлы

▼ Вниз