ML
     
  Уважаемый Гость!
Вы можете поддержать проект и зарегистрироваться у наших партнеров - онлайн-стратегия MyLands. При регистрации в игре Вы получите код, который сможете активировать после регистрации на pirat.ca и получить 1000 дублонов.

Ваш код:
b70663c760e7cd2521b8e123786cdd788200e3bd
 
     

Человек-амфибия (Владимир Чеботарев, Геннадий Казанский) [1961 г., фантастика, мелодрама, BDRip-AVC]

Ответить на тему
 
Автор
Сообщение

Пост 02-Июл-2016 21:53

[Q] 

somik

Легенда

-Человек-амфибия-- Производство: СССР, Ленфильм
Режиссер: Владимир Чеботарев, Геннадий Казанский
Жанр: фантастика, мелодрама
Год выпуска: 1961 г.
Продолжительность: 01:36:21
Российская премьера: 3 января 1962
Дата выхода DVD: 25 марта 2010, «Lizard Cinema Trade»
Дата выхода Blu-Ray: 20 июля 2011, «Парадиз Медиа»-В ролях: Симонов, Владлен Давыдов, Анатолий Смиранин, Анатолий Иванов, Валерий Кудряшов, Николай Кузьмин, Михаил Медведев, Юрий Медведев, Анна Никритина, Георгий Тусузов, Александр Захаров, Алексей Захаров, Станислав Чекан, Тито Ромалио-Описание: Однажды талантливый ученый доктор Сальватор спас жизнь маленькому мальчику, пересадив ему жабры акулы. С этого дня Ихтиандр, так назвал своего приемного сына ученый, мог плавать под водой, как рыба, нырять на любую глубину, но ему было тяжело подолгу находиться на суше…
Годы спустя по тихому морскому городу поползли слухи о странном существе, наводящем ужас на всех рыбаков, o «морском дьяволе». В это же самое время в городе появляется молодой человек, который мало общается с людьми и прекрасно плавает. Он знакомится с дочерью бедного ныряльщика за жемчугом, красавицей Гутиэре и без памяти в нее влюбляется…-Сэмпл КиноПоиск
Качество видео: BDRip-AVC
Контейнер: MKV
Видео кодек: MPEG4 AVC
Аудио кодек: AC3
Видео: 1645 Кбит/с, 1024x576, 23,976 (24000/1001) кадра/сек
Аудио: AC3, 6 ch, 384 Кбит/с, 48,0 КГц
Cубтитры: отсутствуют
Фильм снят по одноименному роману Александра Беляева.
Для съёмок была найдена бухта Ласпи (Крымский полуостров) с достаточно прозрачной водой. Была куплена старая рыболовецкая шхуна и организован вольер для дельфинов.
Сценарий фильма «Человек-амфибия» несколько лет лежал в киностудии «Ленфильм». Никто не хотел браться за съёмки ввиду технических сложностей. Режиссёр Владимир Чеботарев к тому времени уже имел опыт работы в научно-популярном кино, где проводил подводные съёмки. У него родилась идея что актёрам можно погружаться с аквалангом, потом, отсоединив баллон и загубник, переходить в свободное плавание. Таким образом, у оператора есть около минуты, чтобы снять очередной дубль. В роли консультанта фильма и, в последствии, каскадёра выступил известный спортсмен-дайвер Рэм Стукалов.
Актёры Владимр Коренев и Анастасия Вертинская прошли долгие тренировки подводного плавания в бассейне и затем начали съёмки. Тем не менее съёмочная группа не раз подвергалась опасности из-за сложности работы под водой. В эпизоде, когда Ихтиандр опускается под воду на цепи, матрос не уследил за ней, выпустил из рук, и многометровая железная цепь чуть не утащила ко дну Владимира Коренева, но, к счастью, его подстраховали.
Приз на МКФ в Триесте в 1963 году.
Мой первый фильм, заставивший плакать
Поистине сказочная, порой кажется правдивая история любви.
Об этой удивительной истории я узнала благодаря маме, которая посоветовала сначала прочитать, а затем посмотреть эту экранизацию.
Фильм заставляет по-настоящему поверить в существование чистой, светлой любви и настоящей дружбы. Честно говоря, советские фильмы, кроме киношедевров, снятых великим Гайдаем, я не особо жаловала. Но этот фильм изменил мое мнение, и я решила все-таки обратить свое внимание на творчество советских режиссеров. И не прогадала! Главные герои настолько великолепны и прекрасны, что, на мой взгляд, не идут ни в какое сравнение с самыми лучшими и красивыми голливудскими звездами.
Но удручает лишь одно — эта роль оказалась для Коренева роковой. После этого фильма он стал актером «одной роли» Снимался редко, хоть и был популярен. в этом плане Вертинской повезло больше — в «Алых парусах» и «Влюбленных» она все так же прекрасна и мила. Да не будем о грустном!
10 из 10
Общее
Уникальный идентификатор : 221289381193875869031735029256054954655 (0xA67AC8D907C6AF178CA1A48037E8DA9F)
Полное имя : E:\Человек-амфибия\Chelovek amfibija.1961.BDRip-AVC.[pirat.ca].mkv
Формат : Matroska
Версия формата : Version 2
Размер файла : 1,37 Гбайт
Продолжительность : 1 ч. 36 м.
Общий поток : 2031 Кбит/сек
Дата кодирования : UTC 2011-07-30 10:38:50
Программа кодирования : mkvmerge v4.6.0 ('Still Crazy After All These Years') сборка от Apr 1 2011 21:01:49
Библиотека кодирования : libebml v1.2.0 + libmatroska v1.1.0
Видео
Идентификатор : 1
Формат : AVC
Формат/Информация : Advanced Video Codec
Профиль формата : [email protected]
Параметр CABAC формата : Да
Параметр ReFrames формата : 4 кадра
Идентификатор кодека : V_MPEG4/ISO/AVC
Продолжительность : 1 ч. 36 м.
Битрейт : 1645 Кбит/сек
Ширина : 1024 пикселя
Высота : 576 пикселей
Соотношение сторон : 16:9
Режим частоты кадров : Постоянный
Частота кадров : 23,976 (24000/1001) кадра/сек
Цветовое пространство : YUV
Субдискретизация насыщенности : 4:2:0
Битовая глубина : 8 бит
Тип развёртки : Прогрессивная
Бит/(Пиксели*Кадры) : 0.116
Размер потока : 1,08 Гбайт (79%)
Библиотека кодирования : x264 core 115 r1937 aa21558
Настройки программы : cabac=1 / ref=2 / deblock=1:-1:-1 / analyse=0x3:0x113 / me=hex / subme=7 / psy=1 / psy_rd=1.00:0.10 / mixed_ref=0 / me_range=16 / chroma_me=1 / trellis=1 / 8x8dct=1 / cqm=0 / deadzone=21,11 / fast_pskip=1 / chroma_qp_offset=-3 / threads=6 / sliced_threads=0 / nr=0 / decimate=1 / interlaced=0 / bluray_compat=0 / constrained_intra=0 / bframes=2 / b_pyramid=2 / b_adapt=2 / b_bias=0 / direct=3 / weightb=1 / open_gop=0 / weightp=1 / keyint=250 / keyint_min=23 / scenecut=40 / intra_refresh=0 / rc_lookahead=30 / rc=2pass / mbtree=1 / bitrate=1645 / ratetol=1.0 / qcomp=0.60 / qpmin=15 / qpmax=47 / qpstep=3 / cplxblur=20.0 / qblur=0.5 / ip_ratio=1.40 / aq=1:1.10
Default : Да
Forced : Нет
Аудио
Идентификатор : 2
Формат : AC-3
Формат/Информация : Audio Coding 3
Расширение режима : CM (complete main)
Параметр Endianness формата : Big
Идентификатор кодека : A_AC3
Продолжительность : 1 ч. 36 м.
Вид битрейта : Постоянный
Битрейт : 384 Кбит/сек
Каналы : 6 каналов
Расположение каналов : Front: L C R, Side: L R, LFE
Частота : 48,0 КГц
Частота кадров : 31,250 кадров/сек (1536 spf)
Метод сжатия : С потерями
Размер потока : 265 Мбайт (19%)
Default : Да
Forced : Нет
Download / Скачать

Хотите скачать бесплатно? Зарегистрируйтесь на сайте (ссылка на регистрацию). Pirat.ca - самый быстрый торрент трекер в рунете!

Как скачивать  ·   Что такое торрент  ·   Рейтинг и ограничения

jumpersky

Легенда

Пост 03-Июл-2016 11:31 (спустя 13 часов)

[Q] 

супер Лови бочку музыка и фильм
[Профиль]  [ЛС] 
Показать сообщения:    
Ответить на тему

Текущее время: Сегодня 00:23

Часовой пояс: GMT + 4



Вы не можете начинать темы
Вы не можете отвечать на сообщения
Вы не можете редактировать свои сообщения
Вы не можете удалять свои сообщения
Вы не можете голосовать в опросах
Вы не можете прикреплять файлы к сообщениям
Вы не можете скачивать файлы

▼ Вниз