ML
     
  Уважаемый Гость!
Вы можете поддержать проект и зарегистрироваться у наших партнеров - онлайн-стратегия MyLands. При регистрации в игре Вы получите код, который сможете активировать после регистрации на pirat.ca и получить 1000 дублонов.

Ваш код:
ca44e9295b9b8527ba1c339c20494f70782efea6
 
     

Безумный день (Андрей Тутышкин) [1956 г., киноводевиль, DVDRip-AVC]

Ответить на тему
 
Автор
Сообщение

Пост 16-Июл-2016 17:14

[Q] 

somik

Легенда

-Безумный день-- Производство: СССР, МОСФИЛЬМ
Режиссер: Андрей Тутышкин
Жанр: киноводевиль
Год выпуска: 1956 г.
Продолжительность: 01:03:23
Российская премьера: 10 июля 1956
Дата выхода DVD: 29 января 2009, «Мастер Тэйп
В ролях: орь Ильинский, Анастасия Георгиевская, Серафима Бирман, Владимир Володин, Нина Дорошина, Сергей Мартинсон, Ирина Зарубина, Ростислав Плятт, Тамара Логинова, Игорь Горбачёв, Дина Андреева, Ольга Аросева, Сергей Блинников, Евгений Максимов, Александр Лебедев, Сергей Троицкий, Михаил Трояновский, Татьяна Шухмина-Щукина, Николай Чистяков, Зинаида Нарышкина-Описание: Старый завхоз стремится сделать все от него зависящее, чтобы «подведомственные» ему детские ясли открылись в срок. Но для этого нужно немедленно получить одну резолюцию — а вот ее-то махровый бюрократ из управления никак не желает ставить в последний рабочий день.
Все должно решиться в выходной, в «элитном» доме отдыха «Липки», куда завхоз может попасть не иначе, как став самозванцем…-Сэмпл КиноПоиск
Качество видео: DVDRip-AVC
Контейнер: MKV
Видео кодек: MPEG4 AVC
Аудио кодек: AC3
Видео: 3800 Кбит/с, [email protected], 25.000 fps
Аудио: AC3, 2 ch, 192 Кбит/с, 48,0 КГц
Cубтитры: отсутствуют
Легко на сердце от песни веселой!»
Я ничего не имею против, уж поверьте на слово. Но… Немножечко чересчур получилось, не находите? Маленький, но перебор. Нет?
Признаться, с некоторой долей скептицизма уже всё-таки начинаешь смотреть такие картины — даже если нет вопросов с точки зрения актерского мастерства — практически неизбежно возникают таковые в плане сюжета, идеи, морали и пр. Что говорить, полвека минуло уж — тут уже даже фразой типа «всё течет, всё изменяется» не отделаешься. Другое восприятие, как ни крути. Сразу бросаются в глаза условность, наигранность и прочие, уверен, некогда милые сердцу, но, всё же, недостатки.
Что может спасти в такой ситуации? Полагаю, что добротный сценарий. Действительно, интересный сюжет. Если речь о комедии — непременно смешной. На самом деле, и, желательно, не только «триста лет тому назад», а в том, что это возможно, я ни секунды не сомневаюсь.
Взять к примеру этот фильм. Совершенно не собирался смотреть, а наткнулся и… не смог оторваться. Всего час с небольшим — пусть так, но зато целый час хорошего настроения! Так ли это мало?!
Ничего, казалось бы, особенного. Старые как мир шутки и знакомые все до единой комичные ситуации. Но, черт побери, работает ведь!
Я не буду спорить, может, это просто под настроение попало — повезло — вполне допускаю. Больше скажу — не факт совершенно, что, увидев завтра в программе знакомое (теперь) название, снова всё брошу и усядусь перед телевизором — скорее уж наоборот. Да и в мыслях не было у меня называть эту музыкальную комедию шедевром отечественного кино. Но! Смотреть-то было весело! Это-то ведь тоже факт! Да, напрягали некоторые песенки — в силу своего чрезмерного количества, в первую очередь. Но ведь смешно!
Разве профессор Дудкин с дверной ручкой (а кто рискнул бы, после всего услышанного от его жены, выяснить у него, зачем она ему и для чего?!) — это не здорово? А его жена — искательница романтики и «возвышенных страстей» — не та ли самая «знойная женщина, места поэта»? А паника товарища Миусова, напуганного историями о ревнивом муже, — это ли не чудо?! Особенно на контрасте с его же собственной спесивой важностью «большого начальника» — вершителя судеб.
Ну, не знаю, мне понравилось. Я с удовольствием посмотрел и совершенно искренне посмеялся. Большое дело по нынешним меркам.
7 из 10
Общее
Уникальный идентификатор : 200504328388050784832098855723778099166 (0x96D7BA9FE30943A3914BE1A6ACCEC7DE)
Полное имя : C:\герои 7\Безумный день\Bezumnyi Den.1956.DVD-AVC[pirat.ca].mkv
Формат : Matroska
Версия формата : Version 2
Размер файла : 1,77 Гбайт
Продолжительность : 1 ч. 3 м.
Общий поток : 3994 Кбит/сек
Дата кодирования : UTC 2016-07-15 02:20:17
Программа кодирования : mkvmerge v7.8.0 ('River Man') 32bit built on Apr 3 2015 12:11:22
Библиотека кодирования : libebml v1.3.1 + libmatroska v1.4.2
Видео
Идентификатор : 1
Формат : AVC
Формат/Информация : Advanced Video Codec
Профиль формата : [email protected]
Параметр CABAC формата : Да
Параметр ReFrames формата : 14 кадров
Идентификатор кодека : V_MPEG4/ISO/AVC
Продолжительность : 1 ч. 3 м.
Битрейт : 3800 Кбит/сек
Ширина : 686 пикселей
Высота : 568 пикселей
Соотношение сторон : 1,287
Соотношение сторон в оригинале : 1,288
Режим частоты кадров : Постоянный
Частота кадров : 25,000 кадров/сек
Цветовое пространство : YUV
Субдискретизация насыщенности : 4:2:0
Битовая глубина : 8 бит
Тип развёртки : Прогрессивная
Бит/(Пиксели*Кадры) : 0.390
Размер потока : 1,65 Гбайт (93%)
Библиотека кодирования : x264 core 148 r2638 7599210
Настройки программы : cabac=1 / ref=14 / deblock=1:-3:-2 / analyse=0x3:0x113 / me=umh / subme=10 / psy=1 / psy_rd=1.00:0.08 / mixed_ref=1 / me_range=32 / chroma_me=1 / trellis=2 / 8x8dct=1 / cqm=0 / deadzone=21,11 / fast_pskip=0 / chroma_qp_offset=-3 / threads=4 / lookahead_threads=1 / sliced_threads=0 / nr=0 / decimate=0 / interlaced=0 / bluray_compat=0 / constrained_intra=0 / bframes=16 / b_pyramid=2 / b_adapt=2 / b_bias=0 / direct=3 / weightb=1 / open_gop=0 / weightp=2 / keyint=250 / keyint_min=25 / scenecut=40 / intra_refresh=0 / rc=2pass / mbtree=0 / bitrate=3800 / ratetol=1.0 / qcomp=0.60 / qpmin=0 / qpmax=69 / qpstep=4 / cplxblur=20.0 / qblur=0.5 / ip_ratio=1.40 / pb_ratio=1.30 / aq=3:0.80
Язык : English
Default : Да
Forced : Нет
Цветовой диапазон : Limited
Основные цвета : BT.709
Характеристики трансфера : BT.709
Коэффициенты матрицы : BT.709
Аудио
Идентификатор : 2
Формат : AC-3
Формат/Информация : Audio Coding 3
Расширение режима : CM (complete main)
Параметр Endianness формата : Big
Идентификатор кодека : A_AC3
Продолжительность : 1 ч. 3 м.
Вид битрейта : Постоянный
Битрейт : 192 Кбит/сек
Каналы : 2 канала
Расположение каналов : Front: L R
Частота : 48,0 КГц
Частота кадров : 31,250 кадров/сек (1536 spf)
Метод сжатия : С потерями
Размер потока : 87,1 Мбайт (5%)
Default : Да
Forced : Нет
Download / Скачать

Хотите скачать бесплатно? Зарегистрируйтесь на сайте (ссылка на регистрацию). Pirat.ca - самый быстрый торрент трекер в рунете!

Как скачивать  ·   Что такое торрент  ·   Рейтинг и ограничения

Показать сообщения:    
Ответить на тему

Текущее время: Сегодня 16:11

Часовой пояс: GMT + 4



Вы не можете начинать темы
Вы не можете отвечать на сообщения
Вы не можете редактировать свои сообщения
Вы не можете удалять свои сообщения
Вы не можете голосовать в опросах
Вы не можете прикреплять файлы к сообщениям
Вы не можете скачивать файлы

▼ Вниз