ML
     
  Уважаемый Гость!
Вы можете поддержать проект и зарегистрироваться у наших партнеров - онлайн-стратегия MyLands. При регистрации в игре Вы получите код, который сможете активировать после регистрации на pirat.ca и получить 1000 дублонов.

Ваш код:
cc3be08b7507661c03e0a2f582d0da3a659ea55a
 
     

Вий (Георгий Кропачев, Константин Ершов) [1967 г., ужасы, HDRip]

Ответить на тему
 
Автор
Сообщение

Пост 04-Сен-2016 02:56

[Q] 

somik

Легенда

-Вий-- Производство: СССР, Мосфильм
Режиссер: Георгий Кропачев, Константин Ершов
Жанр: ужасы
Год выпуска: 1967 г.
Продолжительность: 01:16:51
Российская премьера: 27 ноября 1967
Дата выхода DVD: 3 сентября 2009, «Азимут»
В ролях: Леонид Куравлёв, Наталья Варлей, Алексей Глазырин, Николай Кутузов, Вадим Захарченко, Пётр Вескляров, Владимир Сальников, Дмитрий Капка, Степан Шкурат, Георгий Сочевко, Николай Яковченко, Николай Панасьев, Маргарита Криницына, Борислав Брондуков, Николай Степанов, Александр Лебедев, Михаил Крамар, Дмитрий Орловский, Анна Павлова, Борис Веселов, Любовь Калюжная, Виктор Колпаков, Александра Денисова-Описание: Студент-философ Хома Брут должен провести несколько ночей у гроба умершей панночки в старой церквушке в далекой деревне. Сможет ли он побороть свой страх, или ему придется столкнуться с нечистой силой?..-Сэмпл КиноПоиск
Качество видео: HDRip
Контейнер: AVI
Видео кодек: XviD
Аудио кодек: MP3
Видео: 656x480 (1.37:1), 23.976 fps, XviD build 73 ~1218 kbps avg, 0.16 bit/pixel
Аудио: 48 kHz, MPEG Layer 3, 2 ch, ~128.00 kbps avg - BD JPN
Cубтитры: отсутствуют
Фильм снят по одноименной повести Николая Гоголя.
В реквизите фильма было заготовлено три гроба Панночки. Один настоящий, для съемок лежащей в нем Натальи Варлей. Два других — для сцен полетов по церкви: небольшой и закрытый и открытый, со специальной стойкой, снабженной поясом монтажных рабочих удерживавшим актрису от падения, закрепленный в подвешенном состоянии на шести металлических тросах.
Съемки фильм производились в Богородчанском районе Ивано-Франковской области (ныне Украина). Однако отснятый на натуре материал разочаровал руководство Мосфильма, оказавшись «слишком реалистическим». Так к работе было решено привлечь известного режиссёра кино-сказочника Александра Птушко. В результате, много материала отснятого Ершовым и Кропачевым было вырезано, ряд идей так и остались невоплощёнными. Изменён был и облик главного чудовища фильма — Вия.
Идея экранизации «Вия» принадлежит известному советскому режиссёру, на тот момент директору кинокомпании Мосфильм, Ивану Пырьеву. Лишь по причине острой нехватки времени он предложил снять картину двум учащимся Высших режиссерских курсов Союза кинематографистов СССР Георгию Кропачеву и Константину Ершову.
Александра Завьялова изначально утвержденная на роль Панночки, сразу после начала съемок тяжело заболела. В итоге будущий муж актрисы, режиссер Резо Эсадзе требовал, чтоб она отказалась от роли.
Первоначально на роль Хомы Брута планировался Михаил Кокшенов.
«Полет» Ведьмы на Хоме был снят в павильоне. Шест, замаскированный под метлу с горизонтальной планкой, на которой сидел Николай Кутузов, крепился на небольшой высоте. Исполнитель роли Хомы Леонид Куравлёв повисал также на этой планке и перебирал в воздухе ногами, имитируя бег.
Во время съемок полета, Наталья Варлей однажды выпала из гроба. Только реакция Леонида Куравлёва, успевшего подхватить актрису, спасла ее от травм. Тем не менее этот случай породил множественные слухи о смерти Варлей.
По задумке Георгия Кропачева сам Вий должен был выглядеть более антропоморфно — гигантским немощным стариком, которого поддерживали всевозможные инфернальные существа.
В фильме задействованы 50 ворон (пойманых в районе студии) и 9 дрессированных черных кошек.
Петух, кукарекающий в фильме ранее был задействован Птушко при съемках фильма «Сказка о царе Салтане».
Костюм Вия был очень тяжелый и никто из актеров не мог в нем нормально двигаться, поэтому эту роль пришлось сыграть специально приглашенному штангисту.
Когда во время одной из финальных сцен героиня Натальи Варлей трясется от злости, актриса стоит на специальной вибрирующей платформе.
классика…
Вот на какой фильм надо ровняться современным постановщикам страшилок.
Идеальный образец отменной режиссуры, игры хороших, талантливых актеров, операторской, монтажной, постановочной работы.
Фильм захватывает, заинтересовывает каким-то необычайным образом. Нет определенного страха при просмотре, но все же цепляет…
Это как меткое попадание в какой то инстинктивный центр человеческого сознания.
Вот не страшно, и все. Тем не менее смотрел уже раз ХХ-цать и каждый раз интересно. Смотришь от начала и до конца.
Фильм на века. Шедевр отечественного кинематографа, да и мирового кинематографа фильмов ужасов (я так считаю).
Наше достояние!
10 из 10
Общее
Полное имя : E:\Вий\Вий.1967.HDRip.[pirat.ca].avi
Формат : AVI
Формат/Информация : Audio Video Interleave
Размер файла : 743 Мбайт
Продолжительность : 1 ч. 16 м.
Общий поток : 1352 Кбит/сек
Название фильма : Вий.1967.HDRip.[pirat.ca]
Видео
Идентификатор : 0
Формат : MPEG-4 Visual
Профиль формата : Advanced [email protected]
Параметр BVOP формата : 1
Параметр QPel формата : Нет
Параметр GMC формата : Без точки перехода
Параметр матрицы формата : Выборочная
Идентификатор кодека : XVID
Идентификатор кодека/Подсказка : XviD
Продолжительность : 1 ч. 16 м.
Битрейт : 1218 Кбит/сек
Ширина : 656 пикселей
Высота : 480 пикселей
Соотношение сторон : 4:3
Частота кадров : 23,976 (24000/1001) кадра/сек
Цветовое пространство : YUV
Субдискретизация насыщенности : 4:2:0
Битовая глубина : 8 бит
Тип развёртки : Прогрессивная
Метод сжатия : С потерями
Бит/(Пиксели*Кадры) : 0.161
Размер потока : 670 Мбайт (90%)
Библиотека кодирования : XviD 73
Аудио
Идентификатор : 1
Формат : MPEG Audio
Версия формата : Version 1
Профиль формата : Layer 3
Режим : Joint stereo
Расширение режима : MS Stereo
Идентификатор кодека : 55
Идентификатор кодека/Подсказка : MP3
Продолжительность : 1 ч. 16 м.
Вид битрейта : Постоянный
Битрейт : 128 Кбит/сек
Каналы : 2 канала
Частота : 48,0 КГц
Метод сжатия : С потерями
Размер потока : 70,4 Мбайт (9%)
Выравнивание : Соединение по промежуткам
Продолжительность промежутка : 167 мс. (4,00 видеокадра)
Время предзагрузки промежутка : 216 мс.
Заголовок : BD JPN
Библиотека кодирования : LAME3.99r
Настройки программы : -m j -V 4 -q 2 -lowpass 17 -b 128
Download / Скачать

Хотите скачать бесплатно? Зарегистрируйтесь на сайте (ссылка на регистрацию). Pirat.ca - самый быстрый торрент трекер в рунете!

Как скачивать  ·   Что такое торрент  ·   Рейтинг и ограничения

Показать сообщения:    
Ответить на тему

Текущее время: Сегодня 05:07

Часовой пояс: GMT + 4



Вы не можете начинать темы
Вы не можете отвечать на сообщения
Вы не можете редактировать свои сообщения
Вы не можете удалять свои сообщения
Вы не можете голосовать в опросах
Вы не можете прикреплять файлы к сообщениям
Вы не можете скачивать файлы

▼ Вниз