Уважаемый Гость!
Вы можете поддержать проект и зарегистрироваться у наших партнеров - онлайн-стратегия MyLands. При регистрации в игре Вы получите код, который сможете активировать после регистрации на pirat.ca и получить 1000 дублонов.

Ваш код:
6e74277781110e9b49c3c0dd24e1bed54391613e
 
     

Освобождение (Юрий Озеров) [1969-1971 гг., драма, мелодрама, военный, BDRip, 720p]

Ответить на тему
 
Автор
Сообщение

Пост 05-Дек-2016 00:29

[Q] 

TERMOS

Легенда

-Освобождение-- Производство: СССР, Германия (ГДР), Польша, Италия
Режиссер: Юрий Озеров
Жанр: драма, мелодрама, военный
Год выпуска: 1969-1971 гг.
В ролях: Николай Олялин, Лариса Голубкина, Борис Зайденберг, Сергей Никоненко, Михаил Ульянов, Владлен Давыдов, Юрий Легков, Василий Шукшин, Евгений Буренков, Дмитрий Франько, Юрий Каморный, Михаил Ножкин, Валерий Носик, Всеволод Санаев, Владимир Самойлов, Игорь Озеров, Бухути Закариадзе, Иван Переверзев, Фриц Диц, Эрих Тиде, Хеньо Хассе, Хорст Гизе, Герд-Михаэль Хеннеберг, Курт Ветцель, Иоахим Папе, Эрих Гербердинг, Ангелика Валлер, Ханс-Гартмут Крюгер, Вернер Виеланд, Отто Дирикс, Петер Штурм, Станислав Яськевич, Даниэль Ольбрыхский, Франтишек Печка, Ян Энглерт, Станислав Микульский, Барбара Брыльска,
Игнацы Маховский, Иво Гаррани, Флорин Пьерсик
Описание: Знаменитая киноэпопея Юрия Озерова о Великой Отечественной войне. Съёмки продолжались в течении 4-х лет. Эпопея состоит из 5 фильмов: "Огненная дуга", "Прорыв", "Направление главного удара", "Битва за Берлин", "Последний штурм".
Год выпуска: 1969 г.
Описание: Фильм первый - «Огненная Дуга» повествует о грандиозной битве на Курской дуге летом 1943 года. Здесь произошло самое крупное в истории Второй мировой войны танковое сражение. Наряду с личными судьбами героев в фильме показаны батальные сцены, деятельность штабов и разведок, тех, кто трудился на фронте и в тылу.
Качество видео: BDRip
Контейнер: MKV
Стандарт разрешения: 720p
Видео кодек: H.264/AVC
Аудио кодек: AC3
Видео: 1280x544 at 24.000 fps (True24p), ~6500 kbps avg
Аудио: Russian: 48 kHz, AC3, 2/0 (L,R) ch, ~224.00 kbps avg
Cубтитры: отсутствуют
-
• Занимает по посещаемости 23-е место среди отечественных фильмов за всю историю советского кинопроката.
• Лучший фильм по опросу журнала «Советский экран» в 1972 году.
• Съёмки всех пяти фильмов эпопеи проходили в период с 1967 по 1971 год.
• Курировал работу съёмочной группы непосредственно ЦК КПСС. С самого начала Юрия Озерова предупредили, что о первых двух годах Великой Отечественной войны не может быть и речи: картина должна сразу начинаться с Курской битвы.
• Съёмки проводились в окрестностях города Переславля-Залесского, т.к. разрешение на проведение съёмок на месте реальных событий так и не было получено, хотя съемочная группа выезжала в Курск.
• После того, как в 1968 году этот фильм показали маршалу Гречко и генералу Епишеву, картина легла на полку и пролежала там до лета 1969 года. В течение этого времени Юрий Озеров переделывал картину 4 раза и успел закончить следующий фильм эпопеи - «Прорыв».
Код:
Format                      : Matroska
Format version              : Version 4 / Version 2
File size                   : 4.37 GiB
Duration                    : 1h 31mn
Overall bit rate            : 6 831 Kbps
Encoded date                : UTC 2016-12-01 13:31:55
Writing application         : mkvmerge v9.5.0 ('Quiet Fire') 32bit
Writing library             : libebml v1.3.4 + libmatroska v1.4.5
DURATION                    : 01:31:35.136000000
NUMBER_OF_FRAMES            : 171723
NUMBER_OF_BYTES             : 153863808
_STATISTICS_WRITING_APP     : mkvmerge v9.5.0 ('Quiet Fire') 32bit
_STATISTICS_WRITING_DATE_UT : 2016-12-01 13:31:55
_STATISTICS_TAGS            : BPS DURATION NUMBER_OF_FRAMES NUMBER_OF_BYTES
Video
ID                          : 2
Format                      : AVC
Format/Info                 : Advanced Video Codec
Format profile              : [email protected]
Format settings, CABAC      : Yes
Format settings, ReFrames   : 12 frames
Codec ID                    : V_MPEG4/ISO/AVC
Duration                    : 1h 31mn
Bit rate                    : 6 471 Kbps
Width                       : 1 280 pixels
Height                      : 544 pixels
Display aspect ratio        : 2.35:1
Frame rate mode             : Constant
Frame rate                  : 24.000 fps
Color space                 : YUV
Chroma subsampling          : 4:2:0
Bit depth                   : 8 bits
Scan type                   : Progressive
Bits/(Pixel*Frame)          : 0.387
Stream size                 : 4.14 GiB (95%)
Writing library             : x264 core 148 r2721kMod 72d53ab
Encoding settings           : cabac=1 / ref=12 / deblock=1:-3:-3 / analyse=0x3:0x113 / me=umh / subme=11 / psy=1 / fade_compensate=0.00 / psy_rd=1.00:0.00 / mixed_ref=1 / me_range=32 / chroma_me=1 / trellis=2 / 8x8dct=1 / cqm=0 / deadzone=21,11 / fast_pskip=0 / chroma_qp_offset=-3 / threads=12 / lookahead_threads=3 / sliced_threads=0 / nr=0 / decimate=1 / interlaced=0 / bluray_compat=0 / constrained_intra=0 / fgo=0 / bframes=12 / b_pyramid=2 / b_adapt=2 / b_bias=0 / direct=3 / weightb=1 / open_gop=0 / weightp=2 / keyint=230 / keyint_min=23 / scenecut=40 / intra_refresh=0 / rc_lookahead=40 / rc=crf / mbtree=0 / crf=17.5000 / qcomp=0.60 / qpmin=0 / qpmax=69 / qpstep=4 / vbv_maxrate=50000 / vbv_bufsize=62500 / crf_max=0.0 / nal_hrd=none / filler=0 / ip_ratio=1.40 / pb_ratio=1.30 / aq=3:0.80
Language                    : English
Default                     : Yes
Forced                      : No
Audio
ID                          : 1
Format                      : AC-3
Format/Info                 : Audio Coding 3
Mode extension              : CM (complete main)
Format settings, Endianness : Big
Codec ID                    : A_AC3
Duration                    : 1h 31mn
Bit rate mode               : Constant
Bit rate                    : 224 Kbps
Channel(s)                  : 2 channels
Channel positions           : Front: L R
Sampling rate               : 48.0 KHz
Bit depth                   : 16 bits
Compression mode            : Lossy
Stream size                 : 147 MiB (3%)
Default                     : Yes
Forced                      : No
DURATION                    : 01:31:34.334000000
NUMBER_OF_FRAMES            : 131864
NUMBER_OF_BYTES             : 4537277583
_STATISTICS_WRITING_APP     : mkvmerge v9.5.0 ('Quiet Fire') 32bit
_STATISTICS_WRITING_DATE_UT : 2016-12-01 13:31:55
_STATISTICS_TAGS            : BPS DURATION NUMBER_OF_FRAMES NUMBER_OF_BYTES
Menu
00:00:00.000                : en:00:00:00.000
00:00:15.833                : en:00:00:15.833
00:05:35.750                : en:00:05:35.750
00:10:00.833                : en:00:10:00.833
00:12:48.333                : en:00:12:48.333
00:18:26.708                : en:00:18:26.708
00:28:12.542                : en:00:28:12.542
00:30:48.792                : en:00:30:48.792
00:34:34.667                : en:00:34:34.667
00:39:34.667                : en:00:39:34.667
00:51:48.000                : en:00:51:48.000
00:56:36.083                : en:00:56:36.083
00:59:23.000                : en:00:59:23.000
01:02:22.417                : en:01:02:22.417
01:05:10.958                : en:01:05:10.958
01:07:23.000                : en:01:07:23.000
01:23:41.750                : en:01:23:41.750
01:28:31.333                : en:01:28:31.333
Год выпуска: 1969 г.
Описание: Фильм второй - «Прорыв» посвящен битве за Днепр и наступательной операции советских войск в 1944 г. В центре этого фильма судьба батальона, сражавшегося на этом плацдарме.
Качество видео: BDRip
Контейнер: MKV
Стандарт разрешения: 720p
Видео кодек: H.264/AVC
Аудио кодек: AC3
Видео: 1280x544 at 24.000 fps (True24p), ~6100 kbps avg
Аудио: Russian: 48 kHz, AC3, 2/0 (L,R) ch, ~224.00 kbps avg
Cубтитры: отсутствуют
-
• Занимает по посещаемости 24-е место среди отечественных фильмов за всю историю советского кинопроката.
• Участие в создании фильма приняли несколько европейских социалистических государств, но львиную часть бюджета предоставил СССР.
• Мундир Сталина изготовил именно тот портной, что шил мундиры настоящему Сталину. Немецкие мундиры, за неимением оригинальных, также пришлось шить. Каски (пластмассовые для меньшего веса) и немецкие ордена изготовили на подсобном производстве студии «Мосфильм».
Код:
Format                      : Matroska
Format version              : Version 4 / Version 2
File size                   : 4.00 GiB
Duration                    : 1h 28mn
Overall bit rate            : 6 457 Kbps
Encoded date                : UTC 2016-12-01 13:33:13
Writing application         : mkvmerge v9.5.0 ('Quiet Fire') 32bit
Writing library             : libebml v1.3.4 + libmatroska v1.4.5
DURATION                    : 01:28:37.088000000
NUMBER_OF_FRAMES            : 166159
NUMBER_OF_BYTES             : 148878464
_STATISTICS_WRITING_APP     : mkvmerge v9.5.0 ('Quiet Fire') 32bit
_STATISTICS_WRITING_DATE_UT : 2016-12-01 13:33:13
_STATISTICS_TAGS            : BPS DURATION NUMBER_OF_FRAMES NUMBER_OF_BYTES
Video
ID                          : 2
Format                      : AVC
Format/Info                 : Advanced Video Codec
Format profile              : [email protected]
Format settings, CABAC      : Yes
Format settings, ReFrames   : 12 frames
Codec ID                    : V_MPEG4/ISO/AVC
Duration                    : 1h 28mn
Bit rate                    : 6 104 Kbps
Width                       : 1 280 pixels
Height                      : 544 pixels
Display aspect ratio        : 2.35:1
Frame rate mode             : Constant
Frame rate                  : 24.000 fps
Color space                 : YUV
Chroma subsampling          : 4:2:0
Bit depth                   : 8 bits
Scan type                   : Progressive
Bits/(Pixel*Frame)          : 0.365
Stream size                 : 3.78 GiB (95%)
Writing library             : x264 core 148 r2721kMod 72d53ab
Encoding settings           : cabac=1 / ref=12 / deblock=1:-3:-3 / analyse=0x3:0x113 / me=umh / subme=11 / psy=1 / fade_compensate=0.00 / psy_rd=1.00:0.00 / mixed_ref=1 / me_range=32 / chroma_me=1 / trellis=2 / 8x8dct=1 / cqm=0 / deadzone=21,11 / fast_pskip=0 / chroma_qp_offset=-3 / threads=12 / lookahead_threads=3 / sliced_threads=0 / nr=0 / decimate=1 / interlaced=0 / bluray_compat=0 / constrained_intra=0 / fgo=0 / bframes=12 / b_pyramid=2 / b_adapt=2 / b_bias=0 / direct=3 / weightb=1 / open_gop=0 / weightp=2 / keyint=230 / keyint_min=23 / scenecut=40 / intra_refresh=0 / rc_lookahead=40 / rc=crf / mbtree=0 / crf=17.5000 / qcomp=0.60 / qpmin=0 / qpmax=69 / qpstep=4 / vbv_maxrate=50000 / vbv_bufsize=62500 / crf_max=0.0 / nal_hrd=none / filler=0 / ip_ratio=1.40 / pb_ratio=1.30 / aq=3:0.80
Language                    : English
Default                     : Yes
Forced                      : No
Audio
ID                          : 1
Format                      : AC-3
Format/Info                 : Audio Coding 3
Mode extension              : CM (complete main)
Format settings, Endianness : Big
Codec ID                    : A_AC3
Duration                    : 1h 28mn
Bit rate mode               : Constant
Bit rate                    : 224 Kbps
Channel(s)                  : 2 channels
Channel positions           : Front: L R
Sampling rate               : 48.0 KHz
Bit depth                   : 16 bits
Compression mode            : Lossy
Stream size                 : 142 MiB (3%)
Default                     : Yes
Forced                      : No
DURATION                    : 01:28:37.042000000
NUMBER_OF_FRAMES            : 127609
NUMBER_OF_BYTES             : 4141357224
_STATISTICS_WRITING_APP     : mkvmerge v9.5.0 ('Quiet Fire') 32bit
_STATISTICS_WRITING_DATE_UT : 2016-12-01 13:33:13
_STATISTICS_TAGS            : BPS DURATION NUMBER_OF_FRAMES NUMBER_OF_BYTES
Menu
00:00:00.000                : en:00:00:00.000
00:03:50.917                : en:00:03:50.917
00:12:29.833                : en:00:12:29.833
00:13:50.542                : en:00:13:50.542
00:15:28.292                : en:00:15:28.292
00:22:16.250                : en:00:22:16.250
00:26:43.458                : en:00:26:43.458
00:31:53.833                : en:00:31:53.833
00:35:35.292                : en:00:35:35.292
00:41:29.708                : en:00:41:29.708
00:49:40.583                : en:00:49:40.583
00:58:57.292                : en:00:58:57.292
01:01:03.458                : en:01:01:03.458
01:02:31.375                : en:01:02:31.375
01:05:09.792                : en:01:05:09.792
01:07:22.583                : en:01:07:22.583
01:12:16.958                : en:01:12:16.958
01:22:47.500                : en:01:22:47.500
Год выпуска: 1970 г.
Описание: Фильм третий - «Направление главного удара» посвящен операции «Багратион», в результате которой была полностью освобождена от фашистских войск Белоруссия, и войска Советской армии вышли к государственной границе...
Качество видео: BDRip
Контейнер: MKV
Стандарт разрешения: 720p
Видео кодек: H.264/AVC
Аудио кодек: AC3
Видео: 1280x544 at 24.000 fps (True24p), ~6600 kbps avg
Аудио: Russian: 48 kHz, AC3, 2/0 (L,R) ch, ~224.00 kbps avg
Cубтитры: отсутствуют
-
• Военные съёмки велись там же, где и два предыдущих фильма - на специально выделенной территории около Переславля-Залесского.
• Для съемок на Львовском ремонтно-механическом заводе были изготовлены 10 «Тигров» и 8 «Пантер». Министр обороны маршал Малиновский распорядился выделить 100 отечественных танков, которые перекрасили под немецкие, а всего в съёмках участвовало 150 танков. Подобным образом «обзавелись» и самолётами. Например, Як-18 - «в роли» всех советских истребителей, а чешские «Злин-50» - в роли немецких «мессершмитов».
• В съёмках принимали участие более 3000 солдат. Сами съёмки проходили почти как настоящие сражения: оборудовались штабы, прокладывалась связь, над полем битвы кружили вертолёты, на одном из которых постоянно находился режиссер Юрий Озеров.
Код:
Format                      : Matroska
Format version              : Version 4 / Version 2
File size                   : 6.34 GiB
Duration                    : 2h 10mn
Overall bit rate            : 6 949 Kbps
Encoded date                : UTC 2016-12-01 13:34:04
Writing application         : mkvmerge v9.5.0 ('Quiet Fire') 32bit
Writing library             : libebml v1.3.4 + libmatroska v1.4.5
DURATION                    : 02:10:38.752000000
NUMBER_OF_FRAMES            : 244961
NUMBER_OF_BYTES             : 219485056
_STATISTICS_WRITING_APP     : mkvmerge v9.5.0 ('Quiet Fire') 32bit
_STATISTICS_WRITING_DATE_UT : 2016-12-01 13:34:04
_STATISTICS_TAGS            : BPS DURATION NUMBER_OF_FRAMES NUMBER_OF_BYTES
Video
ID                          : 2
Format                      : AVC
Format/Info                 : Advanced Video Codec
Format profile              : [email protected]
Format settings, CABAC      : Yes
Format settings, ReFrames   : 12 frames
Codec ID                    : V_MPEG4/ISO/AVC
Duration                    : 2h 10mn
Bit rate                    : 6 586 Kbps
Width                       : 1 280 pixels
Height                      : 544 pixels
Display aspect ratio        : 2.35:1
Frame rate mode             : Constant
Frame rate                  : 24.000 fps
Color space                 : YUV
Chroma subsampling          : 4:2:0
Bit depth                   : 8 bits
Scan type                   : Progressive
Bits/(Pixel*Frame)          : 0.394
Stream size                 : 6.01 GiB (95%)
Writing library             : x264 core 148 r2721kMod 72d53ab
Encoding settings           : cabac=1 / ref=12 / deblock=1:-3:-3 / analyse=0x3:0x113 / me=umh / subme=11 / psy=1 / fade_compensate=0.00 / psy_rd=1.00:0.00 / mixed_ref=1 / me_range=32 / chroma_me=1 / trellis=2 / 8x8dct=1 / cqm=0 / deadzone=21,11 / fast_pskip=0 / chroma_qp_offset=-3 / threads=12 / lookahead_threads=3 / sliced_threads=0 / nr=0 / decimate=1 / interlaced=0 / bluray_compat=0 / constrained_intra=0 / fgo=0 / bframes=12 / b_pyramid=2 / b_adapt=2 / b_bias=0 / direct=3 / weightb=1 / open_gop=0 / weightp=2 / keyint=230 / keyint_min=23 / scenecut=40 / intra_refresh=0 / rc_lookahead=40 / rc=crf / mbtree=0 / crf=17.5000 / qcomp=0.60 / qpmin=0 / qpmax=69 / qpstep=4 / vbv_maxrate=50000 / vbv_bufsize=62500 / crf_max=0.0 / nal_hrd=none / filler=0 / ip_ratio=1.40 / pb_ratio=1.30 / aq=3:0.80
Language                    : English
Default                     : Yes
Forced                      : No
Audio
ID                          : 1
Format                      : AC-3
Format/Info                 : Audio Coding 3
Mode extension              : CM (complete main)
Format settings, Endianness : Big
Codec ID                    : A_AC3
Duration                    : 2h 10mn
Bit rate mode               : Constant
Bit rate                    : 224 Kbps
Channel(s)                  : 2 channels
Channel positions           : Front: L R
Sampling rate               : 48.0 KHz
Bit depth                   : 16 bits
Compression mode            : Lossy
Stream size                 : 209 MiB (3%)
Default                     : Yes
Forced                      : No
DURATION                    : 02:10:38.709000000
NUMBER_OF_FRAMES            : 188129
NUMBER_OF_BYTES             : 6587183826
_STATISTICS_WRITING_APP     : mkvmerge v9.5.0 ('Quiet Fire') 32bit
_STATISTICS_WRITING_DATE_UT : 2016-12-01 13:34:04
_STATISTICS_TAGS            : BPS DURATION NUMBER_OF_FRAMES NUMBER_OF_BYTES
Menu
00:00:00.000                : en:00:00:00.000
00:00:15.250                : en:00:00:15.250
00:05:50.958                : en:00:05:50.958
00:10:36.083                : en:00:10:36.083
00:14:42.208                : en:00:14:42.208
00:19:24.875                : en:00:19:24.875
00:24:55.417                : en:00:24:55.417
00:28:55.917                : en:00:28:55.917
00:37:38.375                : en:00:37:38.375
00:40:49.958                : en:00:40:49.958
00:42:44.667                : en:00:42:44.667
00:45:35.792                : en:00:45:35.792
00:47:06.083                : en:00:47:06.083
00:54:00.125                : en:00:54:00.125
01:00:52.625                : en:01:00:52.625
01:10:35.083                : en:01:10:35.083
01:13:08.500                : en:01:13:08.500
01:16:32.292                : en:01:16:32.292
01:20:35.833                : en:01:20:35.833
01:23:37.417                : en:01:23:37.417
01:30:21.833                : en:01:30:21.833
01:32:25.458                : en:01:32:25.458
01:39:41.125                : en:01:39:41.125
01:46:51.542                : en:01:46:51.542
01:54:48.375                : en:01:54:48.375
02:01:35.833                : en:02:01:35.833
02:05:11.083                : en:02:05:11.083
02:08:00.417                : en:02:08:00.417
Год выпуска: 1971 г.
Описание: Фильм четвертый - «Битва за Берлин». 1945 г. Последние месяцы войны. Именно в эти дни решалась судьба порабощенной Европы. Началась Висло-Одерская операция. Три фронта под командованием Конева, Жукова и Рокоссовского устремились к столице Германии. К Берлину идут и англо-американские войска. «Опередить русских», - предлагает Черчиль и начинаются тайные переговоры с эмиссарами Гитлера, разоблаченные Ялтинской конференцией. Судьба Берлина решится на полях сражений.
Качество видео: BDRip
Контейнер: MKV
Стандарт разрешения: 720p
Видео кодек: H.264/AVC
Аудио кодек: AC3
Видео: 1280x544 at 24.000 fps (True24p), ~6200 kbps avg
Аудио: Russian: 48 kHz, AC3, 2/0 (L,R) ch, ~224.00 kbps avg
Cубтитры: отсутствуют
-
• В 2003 году все пять фильмов цикла «Освобождение» были полностью отреставрированы на киностудии «Мосфильм».
• Всего в эпопее действует 51 реальный исторический персонаж. Подбор актёров на роли этих персонажей оказался непростым делом. Главная проблема заключалась в том, что на момент съемок практически все прототипы героев были ещё живы. Большинство из них занимали высокие посты и интересовались тем, как будут выглядеть на экране. Нужно было не просто добиться портретного сходства, но и получить согласие самого прототипа (или кураторов съёмок) на изображение на экране этого прототипа, тем или иным актёром.
• Весь цикл консультировали сотни специалистов и участников тех событий, в том числе полковник фон Вицлебен, племянник фельдмаршала Эрвина фон Вицлебена - участника «заговора генералов» 20 июля 1944 года.
Код:
Format                      : Matroska
Format version              : Version 4 / Version 2
File size                   : 3.93 GiB
Duration                    : 1h 26mn
Overall bit rate            : 6 527 Kbps
Encoded date                : UTC 2016-12-01 13:35:30
Writing application         : mkvmerge v9.5.0 ('Quiet Fire') 32bit
Writing library             : libebml v1.3.4 + libmatroska v1.4.5
DURATION                    : 01:26:07.552000000
NUMBER_OF_FRAMES            : 161486
NUMBER_OF_BYTES             : 144691456
_STATISTICS_WRITING_APP     : mkvmerge v9.5.0 ('Quiet Fire') 32bit
_STATISTICS_WRITING_DATE_UT : 2016-12-01 13:35:30
_STATISTICS_TAGS            : BPS DURATION NUMBER_OF_FRAMES NUMBER_OF_BYTES
Video
ID                          : 2
Format                      : AVC
Format/Info                 : Advanced Video Codec
Format profile              : [email protected]
Format settings, CABAC      : Yes
Format settings, ReFrames   : 12 frames
Codec ID                    : V_MPEG4/ISO/AVC
Duration                    : 1h 26mn
Bit rate                    : 6 173 Kbps
Width                       : 1 280 pixels
Height                      : 544 pixels
Display aspect ratio        : 2.35:1
Frame rate mode             : Constant
Frame rate                  : 24.000 fps
Color space                 : YUV
Chroma subsampling          : 4:2:0
Bit depth                   : 8 bits
Scan type                   : Progressive
Bits/(Pixel*Frame)          : 0.369
Stream size                 : 3.71 GiB (95%)
Writing library             : x264 core 148 r2721kMod 72d53ab
Encoding settings           : cabac=1 / ref=12 / deblock=1:-3:-3 / analyse=0x3:0x113 / me=umh / subme=11 / psy=1 / fade_compensate=0.00 / psy_rd=1.00:0.00 / mixed_ref=1 / me_range=32 / chroma_me=1 / trellis=2 / 8x8dct=1 / cqm=0 / deadzone=21,11 / fast_pskip=0 / chroma_qp_offset=-3 / threads=12 / lookahead_threads=3 / sliced_threads=0 / nr=0 / decimate=1 / interlaced=0 / bluray_compat=0 / constrained_intra=0 / fgo=0 / bframes=12 / b_pyramid=2 / b_adapt=2 / b_bias=0 / direct=3 / weightb=1 / open_gop=0 / weightp=2 / keyint=230 / keyint_min=23 / scenecut=40 / intra_refresh=0 / rc_lookahead=40 / rc=crf / mbtree=0 / crf=16.5000 / qcomp=0.60 / qpmin=0 / qpmax=69 / qpstep=4 / vbv_maxrate=50000 / vbv_bufsize=62500 / crf_max=0.0 / nal_hrd=none / filler=0 / ip_ratio=1.40 / pb_ratio=1.30 / aq=3:0.80
Language                    : English
Default                     : Yes
Forced                      : No
Audio
ID                          : 1
Format                      : AC-3
Format/Info                 : Audio Coding 3
Mode extension              : CM (complete main)
Format settings, Endianness : Big
Codec ID                    : A_AC3
Duration                    : 1h 26mn
Bit rate mode               : Constant
Bit rate                    : 224 Kbps
Channel(s)                  : 2 channels
Channel positions           : Front: L R
Sampling rate               : 48.0 KHz
Bit depth                   : 16 bits
Compression mode            : Lossy
Stream size                 : 138 MiB (3%)
Default                     : Yes
Forced                      : No
DURATION                    : 01:25:34.167000000
NUMBER_OF_FRAMES            : 123220
NUMBER_OF_BYTES             : 4070067313
_STATISTICS_WRITING_APP     : mkvmerge v9.5.0 ('Quiet Fire') 32bit
_STATISTICS_WRITING_DATE_UT : 2016-12-01 13:35:30
_STATISTICS_TAGS            : BPS DURATION NUMBER_OF_FRAMES NUMBER_OF_BYTES
Menu
00:00:00.000                : en:00:00:00.000
00:00:11.958                : en:00:00:11.958
00:04:27.917                : en:00:04:27.917
00:09:13.333                : en:00:09:13.333
00:14:48.833                : en:00:14:48.833
00:19:21.542                : en:00:19:21.542
00:27:51.167                : en:00:27:51.167
00:35:04.417                : en:00:35:04.417
00:38:57.750                : en:00:38:57.750
00:46:16.583                : en:00:46:16.583
00:48:06.875                : en:00:48:06.875
00:51:26.792                : en:00:51:26.792
00:53:29.167                : en:00:53:29.167
00:59:15.958                : en:00:59:15.958
01:03:41.125                : en:01:03:41.125
01:08:20.542                : en:01:08:20.542
01:16:08.958                : en:01:16:08.958
Год выпуска: 1971 г.
Описание: Фильм пятый - «Последний штурм». Последние дни войны, штурм рейхстага, сражение за каждый метр, за каждый этаж - и, наконец, водружение Знамени Победы над рейхстагом. Раздались первые залпы Победы. Главные герои фильма встречаются у входа в рейхстаг.
Качество видео: BDRip
Контейнер: MKV
Стандарт разрешения: 720p
Видео кодек: H.264/AVC
Аудио кодек: AC3
Видео: 1280x544 at 24.000 fps (True24p), ~6100 kbps avg
Аудио: Russian: 48 kHz, AC3, 2/0 (L,R) ch, ~224.00 kbps avg
Cубтитры: отсутствуют
-
• Фильм снимался в Восточном Берлине (ГДР).
• Во время съемок, в городе, начиналась реконструкция одного из центральных районов. Все старые дома предполагалось снести, чтобы на их месте возвести современные здания, поэтому этот район легко отдали под съёмки.
• Штурм рейхстага снимался по частям. Нашли полуразрушенный собор, фасад и парадная лестница которого очень напоминали рейхстаг. Бои внутри здания сняли на «Мосфильме» и в берлинском Доме техники.
• Особое место в картине занимает эпизод с затоплением метро. Эти съёмки прошли под Москвой, где на одном из шлюзов Москвы-реки построили декорацию берлинской подземки, куда привезли вывезенные в 1945 году из Берлина вагоны. Затопление «метро» происходило в результате открытия этого шлюза.
• Всего в картине задействовали 107 советских, 45 немецких, 11 польских артистов, одного итальянца и одного румына.
Код:
Format                      : Matroska
Format version              : Version 4 / Version 2
File size                   : 3.31 GiB
Duration                    : 1h 13mn
Overall bit rate            : 6 429 Kbps
Encoded date                : UTC 2016-12-01 13:36:41
Writing application         : mkvmerge v9.5.0 ('Quiet Fire') 32bit
Writing library             : libebml v1.3.4 + libmatroska v1.4.5
DURATION                    : 01:13:37.792000000
NUMBER_OF_FRAMES            : 138056
NUMBER_OF_BYTES             : 123698176
_STATISTICS_WRITING_APP     : mkvmerge v9.5.0 ('Quiet Fire') 32bit
_STATISTICS_WRITING_DATE_UT : 2016-12-01 13:36:41
_STATISTICS_TAGS            : BPS DURATION NUMBER_OF_FRAMES NUMBER_OF_BYTES
Video
ID                          : 2
Format                      : AVC
Format/Info                 : Advanced Video Codec
Format profile              : [email protected]
Format settings, CABAC      : Yes
Format settings, ReFrames   : 12 frames
Codec ID                    : V_MPEG4/ISO/AVC
Duration                    : 1h 13mn
Bit rate                    : 6 077 Kbps
Width                       : 1 280 pixels
Height                      : 544 pixels
Display aspect ratio        : 2.35:1
Frame rate mode             : Constant
Frame rate                  : 24.000 fps
Color space                 : YUV
Chroma subsampling          : 4:2:0
Bit depth                   : 8 bits
Scan type                   : Progressive
Bits/(Pixel*Frame)          : 0.364
Stream size                 : 3.13 GiB (95%)
Writing library             : x264 core 148 r2721kMod 72d53ab
Encoding settings           : cabac=1 / ref=12 / deblock=1:-3:-3 / analyse=0x3:0x113 / me=umh / subme=11 / psy=1 / fade_compensate=0.00 / psy_rd=1.00:0.00 / mixed_ref=1 / me_range=32 / chroma_me=1 / trellis=2 / 8x8dct=1 / cqm=0 / deadzone=21,11 / fast_pskip=0 / chroma_qp_offset=-3 / threads=12 / lookahead_threads=3 / sliced_threads=0 / nr=0 / decimate=1 / interlaced=0 / bluray_compat=0 / constrained_intra=0 / fgo=0 / bframes=12 / b_pyramid=2 / b_adapt=2 / b_bias=0 / direct=3 / weightb=1 / open_gop=0 / weightp=2 / keyint=230 / keyint_min=23 / scenecut=40 / intra_refresh=0 / rc_lookahead=40 / rc=crf / mbtree=0 / crf=17.0000 / qcomp=0.60 / qpmin=0 / qpmax=69 / qpstep=4 / vbv_maxrate=50000 / vbv_bufsize=62500 / crf_max=0.0 / nal_hrd=none / filler=0 / ip_ratio=1.40 / pb_ratio=1.30 / aq=3:0.80
Language                    : English
Default                     : Yes
Forced                      : No
Audio
ID                          : 1
Format                      : AC-3
Format/Info                 : Audio Coding 3
Mode extension              : CM (complete main)
Format settings, Endianness : Big
Codec ID                    : A_AC3
Duration                    : 1h 13mn
Bit rate mode               : Constant
Bit rate                    : 224 Kbps
Channel(s)                  : 2 channels
Channel positions           : Front: L R
Sampling rate               : 48.0 KHz
Bit depth                   : 16 bits
Compression mode            : Lossy
Stream size                 : 118 MiB (3%)
Default                     : Yes
Forced                      : No
DURATION                    : 01:13:37.750000000
NUMBER_OF_FRAMES            : 106026
NUMBER_OF_BYTES             : 3425538796
_STATISTICS_WRITING_APP     : mkvmerge v9.5.0 ('Quiet Fire') 32bit
_STATISTICS_WRITING_DATE_UT : 2016-12-01 13:36:41
_STATISTICS_TAGS            : BPS DURATION NUMBER_OF_FRAMES NUMBER_OF_BYTES
Menu
00:00:00.000                : en:00:00:00.000
00:01:40.542                : en:00:01:40.542
00:04:44.917                : en:00:04:44.917
00:09:15.375                : en:00:09:15.375
00:14:00.250                : en:00:14:00.250
00:15:18.333                : en:00:15:18.333
00:23:05.667                : en:00:23:05.667
00:27:07.292                : en:00:27:07.292
00:29:29.583                : en:00:29:29.583
00:32:58.958                : en:00:32:58.958
00:36:16.417                : en:00:36:16.417
00:37:37.917                : en:00:37:37.917
00:42:13.000                : en:00:42:13.000
00:46:21.625                : en:00:46:21.625
00:51:30.833                : en:00:51:30.833
00:53:09.333                : en:00:53:09.333
00:57:20.500                : en:00:57:20.500
00:58:40.292                : en:00:58:40.292
01:02:46.750                : en:01:02:46.750
01:09:32.583                : en:01:09:32.583
Download / Скачать

Хотите скачать бесплатно? Зарегистрируйтесь на сайте (ссылка на регистрацию). Pirat.ca - самый быстрый торрент трекер в рунете!

Как скачивать  ·   Что такое торрент  ·   Рейтинг и ограничения

TERMOS ®

Легенда

19662

Пост 05-Дек-2016 00:34 (спустя 4 минуты)

[Q] 

На днях тут "5 канал" отметился с этим фильмом. Уроды, чо! А вот немцы блюрик выпустили... Полная версия.

_________________
[Профиль]  [ЛС] 

kinstintin

Гроза морей

Пост 05-Дек-2016 12:20 (спустя 11 часов)

[Q] 

Спасибо!!!!!
Автору респект!!!
Лови бочку
[Профиль]  [ЛС] 

Walt

Штурман

Пост 06-Янв-2017 01:49 (спустя 1 месяц)

[Q] 

Это как так, на 45 минуте первой серии, в наступлении немецких войск, вместе с Тиграми участвовали танки ИС-3 и ПТ СУ-100???
[Профиль]  [ЛС] 

nikans

Морской Волк

Пост 15-Янв-2017 13:53 (спустя 9 дней)

[Q] 

Спасибо........
[Профиль]  [ЛС] 
Показать сообщения:    
Ответить на тему

Текущее время: Сегодня 13:40

Часовой пояс: GMT + 4



Вы не можете начинать темы
Вы не можете отвечать на сообщения
Вы не можете редактировать свои сообщения
Вы не можете удалять свои сообщения
Вы не можете голосовать в опросах
Вы не можете прикреплять файлы к сообщениям
Вы не можете скачивать файлы

▼ Вниз