Уважаемый Гость!
Вы можете поддержать проект и зарегистрироваться у наших партнеров - онлайн-стратегия MyLands. При регистрации в игре Вы получите код, который сможете активировать после регистрации на pirat.ca и получить 1000 дублонов.

Ваш код:
6e74277781110e9b49c3c0dd24e1bed54391613e
 
     

Снежная королева (Геннадий Казанский) [1967 г., Сказка, 6+, BDRip, 1080p] [полная реставрация GER Transfer]

Ответить на тему
 
Автор
Сообщение

Пост 25-Дек-2016 23:48

[Q] 

somik

-Снежная королева-- Производство: СССР, Ленфильм
Режиссер: Геннадий Казанский
Жанр: Сказка, 6+
Год выпуска: 1967 г.
Продолжительность: 01:21:45
Российская премьера: 6 ноября 1967 СССР
Дата выхода DVD: 16 июня 2011, «Парадиз»
В ролях: Елена Проклова, Вячеслав Цюпа, Валерий Никитенко, Евгения Мельникова, Наталья Климова, Николай Боярский, Евгений Леонов, Ирина Губанова, Георгий Корольчук, Ольга Викландт, Эра Зиганшина, Андрей Костричкин, Вера Титова, Михаил Васильев, Анатолий Столбов, Александр Афанасьев, Герман Лупекин-Описание: Фильм-сказка повествует о необыкновенном путешествии скромной маленькой девочки Герды. Она разыскивает своего друга Кея, которого похитила и унесла в свое царство Снежная королева — могущественная злая волшебница.
В поисках любимого друга Герда попадает в замок к хитрому, коварному и в то же время смешному королю, знакомится с лесными разбойниками. На пути у девочки будет много преград до решающей битвы со Снежной королевой. Но верное сердце Герды одолеет все невзгоды…-Сэмпл КиноПоиск
Качество видео: BDRip
Контейнер: MKV
Стандарт разрешения: 1080p
Видео кодек: MPEG4 AVC
Аудио кодек: AC3
Видео: 1920x808, 9200 Кбит/с, 24.000 кадр/с
Аудио: AC3, 6ch, 640 Кбит/с, 48.0 KHz
Cубтитры: отсутствуют
IMDb: 7.20/10
Фильм снят по одноименной пьесе Евгения Шварца, написанной по одноименной сказке Ганса Кристиана Андерсена.
Сказ о том, как детская любовь победила ледяное зло
Может, когда-то в детстве я и видел этот фильм, должны же были мне родители его показать — но то ли мне тогда довелось посмотреть только мультфильм 1957 года (тоже советский), то ли я просто не запомнил это кино (хотя как такое можно забыть?) — в зрелом возрасте фильм смотрелся как в первый раз. «Снежную королеву» мы все читали, знаем и любим это произведение, и видели не только экранизации, но и в театр ходили, смотрели разные постановки с разными взглядами на классику. Совершенно новый взгляд на произведение Андерсена был нами оценен в новом мультфильме 2013 года, и несмотря на прорыв в области графики в современной российской мультипликации, все мы увидели, насколько новая экранизация отстаёт от классики. Мультфильм 1957 года способен тронуть до глубины души, а фильм 1966 года, напротив, может изрядно повеселить и отправить зрителя в сказку на полтора часа. Не знаю, для кого «впечатления уже не те», а я был приятно удивлён таким чудесным фильмом даже тогда, когда детство давно прошло.
В отличие от многих экранизаций раннего советского периода, когда на экраны перекладывали лишь меньше половины книги и снимали как подешевле, здесь мы видим абсолютный идеал сказочного кино, максимально захватывающий, красочный, не лишённый юмора фильм, но снятый, как было принято в СССР, без упоминаний о Боге и молитвах (тогда даже в книгах Андерсена опускали все священные слова), но так было принято, и если нужна оригинальная версия сказки, где Кай пытался прочитать «Отче наш», а в уме у него вертелась одна таблица умножения; а Герда в конце читала стихотворение о Христе — то лучше прочитать книгу. В фильме нам показали юмористическую трактовку драматической сказки, где все герои способны развеселить самым добрым юмором. Больше всех заставил хохотать всеми любимый Евгений Леонов в роли короля, который готов на подлость ради… мороженого! И незачем говорить, что хорошего актёра никогда не узнаешь в других фильмах, даже если на нём нет никакого грима. Леонова можно узнать везде, и плохим актёром он от этого не становится.
Фильм снят удивительно красиво — видимо, создатели не жалели средств, чтобы как можно лучше порадовать детей и их родителей. Заметно, что, когда показывают взлёт ворона, уносящего с собой Герду, эта сцена нарисована с помощью простейшей мультипликации, но ругать за это фильм совсем не хочется, ведь тогда невозможно было снять более натурально. Главное, что получилась шикарная экранизация всеми любимой сказки, её можно смотреть как в праздничном настроении, так и для поднятия настроения. Море положительных эмоций и позитива.
10 из 10
Общее
Уникальный идентификатор : 175858853313375554636504285594547670548 (0x844D2EE37467082595EC1D24F20C4E14)
Полное имя : J:\Снежная королева (1967) BDRip 1080p GER Transfer\Snow Queen.1967.BDRip.1080p.[pirat.ca].mkv
Формат : Matroska
Версия формата : Version 4 / Version 2
Размер файла : 5,62 Гбайт
Продолжительность : 1 ч. 21 м.
Общий поток : 9843 Кбит/сек
Дата кодирования : UTC 2016-12-25 09:09:52
Программа кодирования : mkvmerge v7.8.0 ('River Man') 64bit built on Mar 27 2015 16:31:37
Библиотека кодирования : libebml v1.3.1 + libmatroska v1.4.2
Видео
Идентификатор : 1
Формат : AVC
Формат/Информация : Advanced Video Codec
Профиль формата : [email protected]
Параметр CABAC формата : Да
Параметр ReFrames формата : 4 кадра
Идентификатор кодека : V_MPEG4/ISO/AVC
Продолжительность : 1 ч. 21 м.
Битрейт : 9200 Кбит/сек
Ширина : 1920 пикселей
Высота : 808 пикселей
Соотношение сторон : 2,40:1
Режим частоты кадров : Постоянный
Частота кадров : 24,000 кадра/сек
Цветовое пространство : YUV
Субдискретизация насыщенности : 4:2:0
Битовая глубина : 8 бит
Тип развёртки : Прогрессивная
Бит/(Пиксели*Кадры) : 0.247
Размер потока : 5,25 Гбайт (93%)
Заголовок : Video
Библиотека кодирования : x264 core 146 r2538 121396c
Настройки программы : cabac=1 / ref=4 / deblock=1:-3:-3 / analyse=0x3:0x113 / me=esa / subme=11 / psy=1 / psy_rd=1.00:0.00 / mixed_ref=1 / me_range=32 / chroma_me=1 / trellis=2 / 8x8dct=1 / cqm=0 / deadzone=21,11 / fast_pskip=1 / chroma_qp_offset=-2 / threads=6 / lookahead_threads=1 / sliced_threads=0 / nr=0 / decimate=1 / interlaced=0 / bluray_compat=0 / constrained_intra=0 / bframes=10 / b_pyramid=2 / b_adapt=2 / b_bias=0 / direct=3 / weightb=1 / open_gop=0 / weightp=2 / keyint=250 / keyint_min=23 / scenecut=40 / intra_refresh=0 / rc_lookahead=50 / rc=2pass / mbtree=1 / bitrate=9200 / ratetol=1.0 / qcomp=0.60 / qpmin=0 / qpmax=69 / qpstep=4 / cplxblur=20.0 / qblur=0.5 / ip_ratio=1.40 / aq=1:1.00
Язык : German
Default : Да
Forced : Нет
Аудио
Идентификатор : 2
Формат : AC-3
Формат/Информация : Audio Coding 3
Расширение режима : CM (complete main)
Параметр Endianness формата : Big
Идентификатор кодека : A_AC3
Продолжительность : 1 ч. 21 м.
Вид битрейта : Постоянный
Битрейт : 640 Кбит/сек
Каналы : 6 каналов
Расположение каналов : Front: L C R, Side: L R, LFE
Частота : 48,0 КГц
Частота кадров : 31,250 кадров/сек (1536 spf)
Метод сжатия : С потерями
Размер потока : 374 Мбайт (7%)
Заголовок : Audio
Язык : Russian
Default : Да
Forced : Нет
Меню
00:00:00.000 : en:Chapter 1
00:05:16.458 : en:Chapter 2
00:18:18.416 : en:Chapter 3
00:22:11.208 : en:Chapter 4
00:27:42.833 : en:Chapter 5
00:34:23.291 : en:Chapter 6
00:45:46.000 : en:Chapter 7
00:59:04.750 : en:Chapter 8
01:08:55.000 : en:Chapter 9
01:18:01.000 : en:Chapter 10
01:21:38.000 : en:Chapter 11
Download / Скачать

Хотите скачать бесплатно? Зарегистрируйтесь на сайте (ссылка на регистрацию). Pirat.ca - самый быстрый торрент трекер в рунете!

Как скачивать  ·   Что такое торрент  ·   Рейтинг и ограничения

urik

Морской Волк

Пост 28-Дек-2016 14:03 (спустя 2 дня 14 часов)

[Q] 

Спасибо!!! Автору респект!!!
[Профиль]  [ЛС] 

nikans

Морской Волк

Пост 15-Янв-2017 13:53 (спустя 17 дней)

[Q] 

Спасибо........
[Профиль]  [ЛС] 
Показать сообщения:    
Ответить на тему

Текущее время: Сегодня 13:40

Часовой пояс: GMT + 4



Вы не можете начинать темы
Вы не можете отвечать на сообщения
Вы не можете редактировать свои сообщения
Вы не можете удалять свои сообщения
Вы не можете голосовать в опросах
Вы не можете прикреплять файлы к сообщениям
Вы не можете скачивать файлы

▼ Вниз