Уважаемый Гость!
Вы можете поддержать проект и зарегистрироваться у наших партнеров - онлайн-стратегия MyLands. При регистрации в игре Вы получите код, который сможете активировать после регистрации на pirat.ca и получить 1000 дублонов.

Ваш код:
42dfaac977a7ef29e5167536f5b22936dba18477
 
     

Вокзал для двоих (Эльдар Рязанов) [1982 г., мелодрама, комедия, WEB-DLRip-AVC] Оригинал (русский) + Sub (Rus, Eng)

Ответить на тему
 
Автор
Сообщение

Пост 01-Янв-2017 01:21

[Q] 

somik

-Вокзал для двоих-- Производство: СССР, Мосфильм
Режиссер: Эльдар Рязанов
Жанр: мелодрама, комедия
Год выпуска: 1982 г.
Продолжительность: 02:12:40
Российская премьера: 11 февраля 1983 СССР
Дата выхода DVD: 11 января 2011, «Парадиз»
В ролях: Людмила Гурченко, Олег Басилашвили, Никита Михалков, Нонна Мордюкова, Михаил Кононов, Анастасия Вознесенская, Александр Ширвиндт, Татьяна Догилева, Ольга Волкова, Раиса Этуш
Описание:-Описание: Город Заступинск, где-то между Москвой и Алма-Атой, ближе к Воронежу. Вокзальная буфетчица Вера и пианист Платон Рябинин из Москвы познакомились при весьма непривлекательных обстоятельствах. В результате Вера потеряла жениха с дынями, но нашла любимого, который вскоре должен отбыть в отдаленные места, чтобы нести наказание за несовершенное преступление…-Сэмпл КиноПоиск
Качество видео: WEB-DLRip-AVC
Контейнер: MKV
Видео кодек: MPEG4 AVC
Аудио кодек: AC3
Видео: x264: ([email protected]); 794x576 25.000 fps; Display aspect ratio: 1.378:1; 2972 Kbps
Аудио: AC-3; 16 bit 48 Khz; 5.1ch 448 Kbps; CBR
Cубтитры: русские, английские
Формат субтитров: softsub (SRT)
Доп. информация о субтитрах: включаемые
Съемки фильма проходили на Рижском вокзале в Москве.
Лучший фильм по опросу журнала «Советский экран» в 1983 году.
Олег Басилашвили познакомился с Людмилой Гурченко за два часа до начала съемок. Одной из первых сцен снималась сцена с поцелуем главных героев.
Каннский кинофестиваль, 1983 год
Номинации (1):
Золотая пальмовая ветвь
Дыни чарджоунские, сладкие, как вишня…
Неисповедимы пути Господни. Кто-то может встретить любовь в школе, кто-то в институте, кто-то на работе может ходить долго и не замечать человека, а потом на него снизойдёт просветление и прозрение. Местом любви пианиста Рябинина (Олег Басилашвили) и Веры (Людмила Гурченко), стал железнодорожный вокзал. Это не та история, в которой люди увидели друг друга и с первой секунды полюбили. В общем, несмотря на некоторую лиричность предлагаемых Эльдаром Рязановым событий, можно сделать один существенный вывод: а всё хорошее, друзья, даётся нам не дёшево. Как и в приснопамятной «Иронии судьбы», герои не показались друг другу симпатичными при первой встречи. Более того, и там и там, мужчина и женщина испытывали, как бы это помягче выразиться, неприязнь что-ли, поскольку не всегда, я имею ввиду в первую секунду мы можем проявлять терпение, смирение и здравый смысл.
Вот и в «Вокзале для двоих», буфетчица Вера, отнеслась к одному посетителю не слишком любезно. В результате они поцапались, будь здоров. Но мы-то с вами уверены, что как поёт примадонна, а знаешь, всё ещё будет. И действительно, проявив изрядную толику благоразумия и усмирив свои не в меру разыгравшиеся эмоции, герои Гурченко и Басилашвили уже мирно разговаривают и катят тарантайку. У них ещё нет любви. Они, как опытные борцы сумоисты, приглядываются к другу, пытаясь за внешней мишурой узреть человеческие качества, характер, душу. Даётся это им не так, чтобы очень легко, поскольку они уже немолоды, а в таком возрасте подчас бывает трудно закрыть глаза на недостатки человека. И тем не менее, они медленно и верно идут к своей цели. По пути следования, им встретится герой Никиты Михалкова, с которым у Веры то ли был роман, то ли просто мимолётные связи, без обязательств. Вера (Людмила Гурченко) уже совсем по другому посмотрит на этого человека и не позволит ему сделать то, что он делал раньше. Уже наблюдается перемена в сознании человека. И эта перемена к лучшему и к правильному. А ведь герой Басилашвили далеко не супермен и ему стыдно, что он не смог дать сдачи, когда получил по физиономии. Ему стыдно, но Вера, своим женским чутьём поймёт, что это человек благородный до мозга костей. Пусть он не мускулист и фактурен, живёшь ведь в сущности не с мускулами, рассудила про себя Вера. Так, собственно и началась их история. В картине Рязанова будет масса интересных и забавных эпизодов, перемежаемых с драматическими событиями. Ведь этот пианист не так прост. Вернее не просто его прошлое, которое идёт рядышком, рука об руку и не замедлит подкрасться в самый ненужный момент, когда пришла любовь…
10 из 10
Общее
Уникальный идентификатор : 241671465177247319362880153342020272052 (0xB5D03B2C92AF22738D5BB98F3EC5BFB4)
Полное имя : J:\Вокзал для двоих.1982.WEB-DLRip.[pirat.ca]\Вокзал для двоих.1982.WEB-DLRip.[pirat.ca].mkv
Формат : Matroska
Версия формата : Version 2
Размер файла : 3,17 Гбайт
Продолжительность : 2 ч. 12 м.
Общий поток : 3422 Кбит/сек
Дата кодирования : UTC 2016-12-31 20:52:45
Программа кодирования : mkvmerge v5.3.0 ('I could have danced') built on Feb 9 2012 10:38:07
Библиотека кодирования : libebml v1.2.3 + libmatroska v1.3.0
Примечание : WEB-DLRip-AVC
Encoded by : george$t®
Originally released : December 29th 2016
Видео
Идентификатор : 1
Формат : AVC
Формат/Информация : Advanced Video Codec
Профиль формата : [email protected]
Параметр CABAC формата : Да
Параметр ReFrames формата : 16 кадров
Идентификатор кодека : V_MPEG4/ISO/AVC
Продолжительность : 2 ч. 12 м.
Битрейт : 2972 Кбит/сек
Ширина : 794 пикселя
Высота : 576 пикселей
Соотношение сторон : 1,378
Режим частоты кадров : Постоянный
Частота кадров : 25,000 кадров/сек
Цветовое пространство : YUV
Субдискретизация насыщенности : 4:2:0
Битовая глубина : 8 бит
Тип развёртки : Прогрессивная
Бит/(Пиксели*Кадры) : 0.260
Размер потока : 2,69 Гбайт (85%)
Заголовок : Вокзал для двоих.1982
Библиотека кодирования : x264 core 148 r2721kMod 72d53ab
Настройки программы : cabac=1 / ref=16 / deblock=1:-1:-1 / analyse=0x3:0x113 / me=umh / subme=10 / psy=1 / fade_compensate=0.00 / psy_rd=1.00:0.15 / mixed_ref=1 / me_range=32 / chroma_me=1 / trellis=2 / 8x8dct=1 / cqm=0 / deadzone=21,11 / fast_pskip=0 / chroma_qp_offset=-3 / threads=12 / lookahead_threads=2 / sliced_threads=0 / nr=0 / decimate=0 / interlaced=0 / bluray_compat=0 / constrained_intra=0 / fgo=0 / bframes=8 / b_pyramid=2 / b_adapt=2 / b_bias=0 / direct=3 / weightb=1 / open_gop=0 / weightp=2 / keyint=250 / keyint_min=25 / scenecut=40 / intra_refresh=0 / rc_lookahead=60 / rc=2pass / mbtree=0 / bitrate=2972 / ratetol=1.0 / qcomp=0.60 / qpmin=0 / qpmax=69 / qpstep=4 / cplxblur=20.0 / qblur=0.5 / vbv_maxrate=62500 / vbv_bufsize=78125 / nal_hrd=none / filler=0 / ip_ratio=1.40 / pb_ratio=1.30 / aq=2:0.80
Язык : Russian
Default : Да
Forced : Нет
Цветовой диапазон : Limited
Основные цвета : BT.709
Характеристики трансфера : BT.709
Коэффициенты матрицы : BT.709
Аудио
Идентификатор : 2
Формат : AC-3
Формат/Информация : Audio Coding 3
Расширение режима : CM (complete main)
Параметр Endianness формата : Big
Идентификатор кодека : A_AC3
Продолжительность : 2 ч. 12 м.
Вид битрейта : Постоянный
Битрейт : 448 Кбит/сек
Каналы : 6 каналов
Расположение каналов : Front: L C R, Side: L R, LFE
Частота : 48,0 КГц
Частота кадров : 31,250 кадров/сек (1536 spf)
Метод сжатия : С потерями
Размер потока : 425 Мбайт (13%)
Язык : Russian
Default : Да
Forced : Да
Текст #1
Идентификатор : 3
Формат : UTF-8
Идентификатор кодека : S_TEXT/UTF8
Идентификатор кодека/Информация : UTF-8 Plain Text
Заголовок : Субтитры русские
Язык : Russian
Default : Нет
Forced : Нет
Текст #2
Идентификатор : 4
Формат : UTF-8
Идентификатор кодека : S_TEXT/UTF8
Идентификатор кодека/Информация : UTF-8 Plain Text
Заголовок : Субтитры английские
Язык : English
Default : Нет
Forced : Нет
Download / Скачать

Хотите скачать бесплатно? Зарегистрируйтесь на сайте (ссылка на регистрацию). Pirat.ca - самый быстрый торрент трекер в рунете!

Как скачивать  ·   Что такое торрент  ·   Рейтинг и ограничения

nikans

Морской Волк

Пост 15-Янв-2017 13:53 (спустя 14 дней)

[Q] 

СПАСИБО, спасибо
[Профиль]  [ЛС] 
Показать сообщения:    
Ответить на тему

Текущее время: Сегодня 22:35

Часовой пояс: GMT + 4



Вы не можете начинать темы
Вы не можете отвечать на сообщения
Вы не можете редактировать свои сообщения
Вы не можете удалять свои сообщения
Вы не можете голосовать в опросах
Вы не можете прикреплять файлы к сообщениям
Вы не можете скачивать файлы

▼ Вниз