Уважаемый Гость!
Вы можете поддержать проект и зарегистрироваться у наших партнеров - онлайн-стратегия MyLands. При регистрации в игре Вы получите код, который сможете активировать после регистрации на pirat.ca и получить 1000 дублонов.

Ваш код:
d19280aa7c3927dcc0b072067c8f18430649a655
 
     

Сказка странствий (Александр Митта) [1983 г., фэнтези, приключения, DVDRip-AVC] [hand made]

Ответить на тему
 
Автор
Сообщение

Пост 13-Янв-2017 04:17

[Q] 

somik

-Сказка странствий-- Производство: СССР, Чехословакия, Румыния
Режиссер: Александр Митта
Жанр: фэнтези, приключения, 0+
Год выпуска: 1983 г.
Продолжительность: 01:43:42
Российская премьера: 5 сентября 1983 СССР
Дата выхода DVD: 20 февраля 2014, «Азимут»
В ролях: Андрей Миронов, Владимир Кремена, Татьяна Аксюта, Владимир Басов, Лев Дуров, Вениамин Смехов, Валерий Сторожик-Описание: Два злодея похищают мальчика-сироту, обладающего волшебным даром находить золото. Его сестра долгие годы ищет его, испытывая лишения, и наконец встречается с братом. Но оказывается, что найти — еще не значит спасти…-Сэмпл КиноПоиск
Качество видео: DVDRip-AVC
Контейнер: MKV
Видео кодек: MPEG4 AVC
Аудио кодек: MP3
Видео: 766x572, 4635 Kbps, 24 fps
Аудио: MP3, 320 kbps, 48 kHz, 2 ch
Cубтитры: отсутствуют
IMDb: 8.10/10
Сюжет:
В маленьком княжестве жили двое нищих сирот: брат Май и сестра Марта. Нищими они были по доброй воле, поскольку мальчик Май обладал волшебным даром находить золото: чем ближе золото — тем сильнее у Мая болела голова. Сестра же, не желая, чтобы брат мучился, запрещала Маю пользоваться своим даром. Под Рождество Мая похищает злодей Горгон, надеясь разбогатеть с помощью необыкновенных способностей мальчика.
Марта пускается на поиски брата и встречает изобретателя и врача, поэта и философа, бродягу и мыслителя Орландо. Вместе они странствуют по свету в поисках Мая, преодолевая всевозможные препятствия и искушения, пока в один из дней Орландо не побеждает ценой своей жизни жуткую ведьму Чуму.
Через десять лет странствий Марта приходит в земли, в которых правит жестокий принц со своими людьми. И именно здесь Марта наконец находит своего брата, но только для того, чтобы вновь его потерять: Май и есть этот жестокий принц, он изменился, научился управлять своим даром, теперь он не просто не испытывает боли от золота, он может даже притягивать его силой мысли. Горгон счастлив — он вырастил копию себя, он верит, что в Мае живёт его душа.
Решая, что Марте не место в замке, Горгон сначала хочет подкупить её, чтобы она ушла, а когда девушка отказывается — заключает её в башню. Май приходит к сестре и, видя её страдания, убеждается в никчемности своего прожжённого существования. Используя свой дар, Май «призывает» к себе всё золото, находящееся в замке — и разрушает замок. На развалинах Марта приходит в себя и видит Мая, который больше не чувствует золота, но в нём ожила душа Орландо…
В ролях
Андрей Миронов — Орландо
Татьяна Аксюта — Марта (озвучивает Марина Неёлова)
Лев Дуров — Горгон
Ксения Пирятинская — маленький Май
Балтыбай Сейтмамутов — Брутус, помощник Горгона
Валерий Сторожик — взрослый Май
Кармен Галин — Ведьма-Чума (озвучивает Екатерина Васильева)
Вениамин Смехов — Дон Кихот на Драконе
Владимир Басов — адвокат
Александр Пятков — бурильщик
Владимир Долинский — эпизод
Жан Лорин Флореску — прокурор (озвучивает Виктор Сергачёв)
Съёмочная группа
Авторы сценария:
Митта, Александр Наумович
Юлий Дунский
Валерий Фрид
Режиссёр-постановщик — Александр Митта
Оператор-постановщик — Валерий Шувалов
Художник-постановщик — Теодор Тэжик
Композитор — Альфред Шнитке
Текст песен — Ю. Михайлов
Звукорежиссёр — Юрий Рабинович
Государственный симфонический оркестр кинематографии
Дирижёр — Марк Эрмлер
- Мы летели как ангелы! — А стали как люди.
Прекрасный красивый мудрый фильм.
Здесь сказано все о том, когда жизнь обретает смысл, и когда становится бессмысленной. Здесь каждому есть свое место: мужчине — думать и действовать, быть гением и совершенствовать этот мир, совершать ошибки, женщине — поддерживать в нем веру в себя, не позволять сдаваться, любить и прощать.
Буквально каждый эпизод — метафора, наполненная философским смыслом в масштабах всего человечества. Чего только стоит сцена, когда ради спасения жизни детей (вечная тема Достоевского — цена одной слезы ребенка), гибнут все собиравшиеся годами «великие» идеи бродячего философа, лекаря и поэта.
А полет! — воплощение извечной мечты быть свободным, как птицы — какая сила и пронзительность в этом торжестве разума и духа над бренностью всего земного.
Лучший фильм Андрея Миронова, и один из лучших в российском кинематографе.
Общее
Уникальный идентификатор : 192601567831658829266151124864993033873 (0x90E5B67258C10F839EAA707C1AAB7E91)
Полное имя : J:\Сказка странствий (1983) DVDRip-AVC\Skazka Stranstvij.1983.DVDRip-AVC.[pirat.ca].mkv
Формат : Matroska
Версия формата : Version 2
Размер файла : 3,59 Гбайт
Продолжительность : 1 ч. 43 м.
Общий поток : 4955 Кбит/сек
Дата кодирования : UTC 2017-01-12 23:53:37
Программа кодирования : mkvmerge v5.3.0 ('I could have danced') built on Feb 9 2012 10:38:07
Библиотека кодирования : libebml v1.2.3 + libmatroska v1.3.0
Видео
Идентификатор : 1
Формат : AVC
Формат/Информация : Advanced Video Codec
Профиль формата : High [email protected]
Параметр CABAC формата : Да
Параметр ReFrames формата : 16 кадров
Идентификатор кодека : V_MPEG4/ISO/AVC
Продолжительность : 1 ч. 43 м.
Битрейт : 4536 Кбит/сек
Ширина : 766 пикселей
Высота : 572 пикселя
Соотношение сторон : 4:3
Режим частоты кадров : Постоянный
Частота кадров : 24,000 кадра/сек
Цветовое пространство : YUV
Субдискретизация насыщенности : 4:2:0
Битовая глубина : 10 бит
Тип развёртки : Прогрессивная
Бит/(Пиксели*Кадры) : 0.431
Размер потока : 3,29 Гбайт (92%)
Библиотека кодирования : x264 core 146 r2538kMod 121396c
Настройки программы : cabac=1 / ref=16 / deblock=1:0:0 / analyse=0x3:0x133 / me=umh / subme=11 / psy=1 / fade_compensate=0.00 / psy_rd=1.00:0.10 / mixed_ref=1 / me_range=64 / chroma_me=1 / trellis=2 / 8x8dct=1 / cqm=0 / deadzone=21,11 / fast_pskip=0 / chroma_qp_offset=-3 / threads=6 / lookahead_threads=1 / sliced_threads=0 / nr=0 / decimate=1 / interlaced=0 / bluray_compat=0 / constrained_intra=0 / fgo=0 / bframes=16 / b_pyramid=2 / b_adapt=2 / b_bias=0 / direct=3 / weightb=1 / open_gop=0 / weightp=2 / keyint=240 / keyint_min=24 / scenecut=40 / intra_refresh=0 / rc=crf / mbtree=0 / crf=15.0000 / qcomp=0.60 / qpmin=0 / qpmax=81 / qpstep=4 / ip_ratio=1.40 / pb_ratio=1.30 / aq=3:0.70
Язык : Russian
Default : Да
Forced : Нет
Statistics Tags Issue : mkvmerge v7.8.0 ('River Man') 64bit built on Mar 27 2015 16:31:37 2016-03-12 15:43:10 / mkvmerge v5.3.0 ('I could have danced') built on Feb 9 2012 10:38:07 2017-01-12 23:53:37
FromStats_BitRate : 4633495
FromStats_Duration : 01:43:42.375000000
FromStats_FrameCount : 149337
FromStats_StreamSize : 3603918281
Аудио
Идентификатор : 2
Формат : MPEG Audio
Версия формата : Version 1
Профиль формата : Layer 3
Режим : Joint stereo
Расширение режима : MS Stereo
Идентификатор кодека : A_MPEG/L3
Идентификатор кодека/Подсказка : MP3
Продолжительность : 1 ч. 43 м.
Вид битрейта : Постоянный
Битрейт : 320 Кбит/сек
Каналы : 2 канала
Частота : 48,0 КГц
Метод сжатия : С потерями
Размер потока : 237 Мбайт (6%)
Заголовок : downmix to stereo
Библиотека кодирования : LAME3.99r
Настройки программы : -m j -V 4 -q 0 -lowpass 20.5
Язык : Russian
Default : Нет
Forced : Нет
Statistics Tags Issue : mkvmerge v7.8.0 ('River Man') 64bit built on Mar 27 2015 16:31:37 2016-03-12 15:43:10 / mkvmerge v5.3.0 ('I could have danced') built on Feb 9 2012 10:38:07 2017-01-12 23:53:37
FromStats_BitRate : 320000
FromStats_Duration : 01:43:36.216000000
FromStats_FrameCount : 259009
FromStats_StreamSize : 248648640
Download / Скачать

Хотите скачать бесплатно? Зарегистрируйтесь на сайте (ссылка на регистрацию). Pirat.ca - самый быстрый торрент трекер в рунете!

Как скачивать  ·   Что такое торрент  ·   Рейтинг и ограничения

nikans

Морской Волк

Пост 15-Янв-2017 13:51 (спустя 2 дня 9 часов)

[Q] 

СПАСИБО-спасибо
[Профиль]  [ЛС] 
Показать сообщения:    
Ответить на тему

Текущее время: Сегодня 01:32

Часовой пояс: GMT + 4



Вы не можете начинать темы
Вы не можете отвечать на сообщения
Вы не можете редактировать свои сообщения
Вы не можете удалять свои сообщения
Вы не можете голосовать в опросах
Вы не можете прикреплять файлы к сообщениям
Вы не можете скачивать файлы

▼ Вниз