ML
     
  Уважаемый Гость!
Вы можете поддержать проект и зарегистрироваться у наших партнеров - онлайн-стратегия MyLands. При регистрации в игре Вы получите код, который сможете активировать после регистрации на pirat.ca и получить 1000 дублонов.

Ваш код:
a25c770f183766226fe2219887d66f72f7b3e2cf
 
     

Приходите завтра (Евгений Ташков) [1962 г., драма, мелодрама, комедия, музыка, BDRip, 1080p]

Ответить на тему
 
Автор
Сообщение

Пост 16-Янв-2017 13:10

[Q] 

somik

-Приходите завтра-- Производство: СССР, Одесская киностудия
Режиссер: Евгений Ташков
Жанр: драма, мелодрама, комедия, музыка
Год выпуска: 1962 г.
Продолжительность: 01:36:44
Российская премьера: 19 апреля 1963 СССР
Дата выхода DVD: 10 октября 2011, «Азимут»
Дата выхода Blu-Ray: 3 февраля 2011, «Парадиз»-В ролях: Анатолий Папанов, Екатерина Савинова, Борис Бибиков, Антонина Максимова, Юрий Горобец, Надежда Животова, Александр Ширвиндт, Юрий Белов, Александра Денисова, Борис Коковкин-Описание: Кинокомедия о судьбе простой, талантливой девушки Фроси, приехавшей учиться в Москву из небольшого сибирского села, о том, как она добилась поступления в консерваторию.-Сэмпл КиноПоиск
Качество видео: BDRip
Контейнер: MKV
Стандарт разрешения: 1080p
Видео кодек: MPEG4 AVC
Аудио кодек: AC3
Видео: 11,1 Мбит/сек 1424 x 1080 (1.319) at 23.976 fps
Аудио: AC-3 at 640 Кбит/сек 6 канала(ов), 48,0 КГц
Cубтитры: отсутствуют
IMDb: 7.70/10
Сценарий написан режиссёром Е. И. Ташковым совместно с супругой Е. Ф. Савиновой и включает некоторые факты автобиографии актрисы.
Я была ужасно удивлена не увидев на этот фильм ни одного отзыва! Даже не удивлена, а возмущена!
«Приходите завтра» одна из самых лучших и добрых картин своего, и не только времени.
История доброй, наивной и невероятно талантливой девушки Фроси Бурлаковой, приехавшей даже не из сибирской деревни, а с пасеки(!!!) покорять Москву.
Наблюдать за ее «поездкой» на такси, заказом в ресторане ("Мне, пожалуйста, чаю… стаканов шесть.») Или как доверчивая Фрося проходила отборочные туры у «самого профессора Станиславского» одно сплошное удовольствие.
Да и послушать голосистую Екатерину Савинову тоже многого стоит. Которая, к большому сожалению, из-за своей страшной болезни порадовала нас не многими ролями.
Фильм хоть и черно-белый, но все равно излучающий радостью всех цветов радуги!
В общем кино, просто обязательное к просмотру.
10 из 10
Общее
Уникальный идентификатор : 232119981645264018196900579407105734910 (0xAEA0AEAD72F707FDA6CD32F8A461B8FE)
Полное имя : F:\Приходите завтра (1962) BDRip 1080\Приходите завтра.1962.BDRip.1080.[pirat.ca].mkv
Формат : Matroska
Версия формата : Version 2
Размер файла : 7,95 Гбайт
Продолжительность : 1 ч. 36 м.
Режим общего битрейта : Переменный
Общий поток : 11,8 Мбит/сек
Дата кодирования : UTC 2017-01-16 08:35:01
Программа кодирования : mkvmerge v5.3.0 ('I could have danced') built on Feb 9 2012 10:38:07
Библиотека кодирования : libebml v1.2.3 + libmatroska v1.3.0
Видео
Идентификатор : 1
Формат : AVC
Формат/Информация : Advanced Video Codec
Профиль формата : [email protected]
Параметр CABAC формата : Да
Параметр ReFrames формата : 4 кадра
Идентификатор кодека : V_MPEG4/ISO/AVC
Продолжительность : 1 ч. 36 м.
Вид битрейта : Переменный
Битрейт : 11,1 Мбит/сек
Максимальный битрейт : 40,0 Мбит/сек
Ширина : 1424 пикселя
Высота : 1080 пикселей
Соотношение сторон : 4:3
Режим частоты кадров : Постоянный
Частота кадров : 23,976 кадра/сек
Цветовое пространство : YUV
Субдискретизация насыщенности : 4:2:0
Битовая глубина : 8 бит
Тип развёртки : Прогрессивная
Бит/(Пиксели*Кадры) : 0.302
Размер потока : 7,36 Гбайт (93%)
Библиотека кодирования : x264 core 112 r1867 22bfd31
Настройки программы : cabac=1 / ref=5 / deblock=1:-3:-3 / analyse=0x3:0x113 / me=umh / subme=10 / psy=1 / psy_rd=1.00:0.10 / mixed_ref=1 / me_range=32 / chroma_me=1 / trellis=2 / 8x8dct=1 / cqm=0 / deadzone=21,11 / fast_pskip=0 / chroma_qp_offset=-4 / threads=6 / sliced_threads=0 / slices=4 / nr=0 / decimate=0 / interlaced=0 / constrained_intra=0 / bframes=7 / b_pyramid=1 / b_adapt=2 / b_bias=0 / direct=1 / weightb=1 / open_gop=0 / weightp=2 / keyint=250 / keyint_min=23 / scenecut=40 / intra_refresh=0 / rc_lookahead=40 / rc=2pass / mbtree=0 / bitrate=11126 / ratetol=1.0 / qcomp=0.60 / qpmin=10 / qpmax=51 / qpstep=4 / cplxblur=20.0 / qblur=0.5 / vbv_maxrate=40000 / vbv_bufsize=30000 / nal_hrd=vbr / ip_ratio=1.40 / pb_ratio=1.30 / aq=1:0.80
Язык : Russian
Default : Нет
Forced : Да
Аудио
Идентификатор : 2
Формат : AC-3
Формат/Информация : Audio Coding 3
Расширение режима : CM (complete main)
Параметр Endianness формата : Big
Идентификатор кодека : A_AC3
Продолжительность : 1 ч. 36 м.
Вид битрейта : Постоянный
Битрейт : 640 Кбит/сек
Каналы : 6 каналов
Расположение каналов : Front: L C R, Side: L R, LFE
Частота : 48,0 КГц
Частота кадров : 31,250 кадров/сек (1536 spf)
Метод сжатия : С потерями
Размер потока : 443 Мбайт (5%)
Язык : Russian
Default : Да
Forced : Да
Меню
00:00:00.000 : en:00:00:00.000
00:05:55.021 : en:00:05:55.021
00:14:22.612 : en:00:14:22.612
00:18:11.882 : en:00:18:11.882
00:24:12.993 : en:00:24:12.993
00:28:22.951 : en:00:28:22.951
00:33:36.723 : en:00:33:36.723
00:40:20.209 : en:00:40:20.209
00:44:13.442 : en:00:44:13.442
00:47:04.447 : en:00:47:04.447
00:53:15.317 : en:00:53:15.317
00:56:46.612 : en:00:56:46.612
01:03:35.812 : en:01:03:35.812
01:05:09.489 : en:01:05:09.489
01:09:18.446 : en:01:09:18.446
01:15:51.505 : en:01:15:51.505
01:21:05.277 : en:01:21:05.277
01:28:34.100 : en:01:28:34.100
Download / Скачать

Хотите скачать бесплатно? Зарегистрируйтесь на сайте (ссылка на регистрацию). Pirat.ca - самый быстрый торрент трекер в рунете!

Как скачивать  ·   Что такое торрент  ·   Рейтинг и ограничения

isaenko1957

Морской Волк

Пост 06-Мар-2017 08:53 (спустя 1 месяц 20 дней)

[Q] 

такие фильмы уже не снимают !

_________________
Мы не настолько богаты что бы покупать дешевые вещи !
[Профиль]  [ЛС] 

kentu158

Корсар

Пост 27-Мар-2017 18:19 (спустя 21 день)

[Q] 

Да, ржачное кино!) Шедевр советского кино! Супер!

_________________
Не переживай о многом, и ты переживёшь многих! [img]https://nick-name.ru/forum4t3/Drause.gif[/img]
[Профиль]  [ЛС] 
Показать сообщения:    
Ответить на тему

Текущее время: Сегодня 10:56

Часовой пояс: GMT + 4



Вы не можете начинать темы
Вы не можете отвечать на сообщения
Вы не можете редактировать свои сообщения
Вы не можете удалять свои сообщения
Вы не можете голосовать в опросах
Вы не можете прикреплять файлы к сообщениям
Вы не можете скачивать файлы

▼ Вниз