ML
     
  Уважаемый Гость!
Вы можете поддержать проект и зарегистрироваться у наших партнеров - онлайн-стратегия MyLands. При регистрации в игре Вы получите код, который сможете активировать после регистрации на pirat.ca и получить 1000 дублонов.

Ваш код:
fcbe1c8fed41b19a2a576818a97b40fe85e8424e
 
     

Сказка о царе Салтане (Александр Птушко) [1966 г., Сказка, DVDRip] [Реставрация]

Ответить на тему
 
Автор
Сообщение

Пост 03-Фев-2017 16:19

[Q] 

somik

-Сказка о царе Салтане-- Производство: СССР, Мосфильм
Режиссер: Александр Птушко
Жанр: Сказка
Год выпуска: 1966 г.
Продолжительность: 01:21:40
Российская премьера: 2 января 1967 СССР
Дата выхода DVD: 1 сентября 1999, «Ruscico»
В ролях: Владимир Андреев — царь Салтан, Лариса Голубкина — царица, Олег Видов — царевич Гвидон, Ксения Рябинкина — царевна Лебедь (озвучивает Нина Гуляева), Сергей Мартинсон — опекун Салтана, Ольга Викландт — сватья баба Бабариха (в титрах как «О. Викланд»), Вера Ивлева — ткачиха, Нина Беляева — повариха, Виктор Колпаков — 1-й дьяк, Юрий Чекулаев — спальник, Валерий Носик — челядинец, Григорий Шпигель — градоправитель, Евгений Майхровский — шут, Яков Беленький — 1-й корабельщик, Борис Битюков — 2-й корабельщик/1-й боярин, Сергей Голованов — 3-й корабельщик, Александр Дегтярь — 4-й корабельщик, Артём Карапетян — 5-й корабельщик, Юрий Киреев — 6-й корабельщик, Григорий Михайлов — 7-й корабельщик, Михаил Орлов — 8-й корабельщик, Дмитрий Орловский — 9-й корабельщик, Гурген Тонунц — 10-й корабельщик Владимир Ферапонтов — 11-й корабельщик, ...-Описание: Три девицы под окном пряли поздно вечерком… А потом много чего было: и любовь, и клевета, и предательство, и чудеса, и множество волшебных приключений, и тридцать три богатыря, и, конечно же, счастливый конец…
Издание от компании Крупный план. Полная реставрация изображения и звука.-Сэмпл КиноПоиск
Качество видео: DVDRip
Контейнер: AVI
Видео кодек: XviD
Аудио кодек: AC3
Видео: 720x304 (2.37:1), 25 fps, XviD build 73, 1944 kbps avg, 0.35 bit/pixel
Аудио: 48 kHz, AC3 Dolby Digital, 3/2 (L,C,R,l,r) + LFE ch, 448 kbps
Cубтитры: отсутствуют
IMDb: 7.20/10
Фильм снят по одноименной сказке Александра Пушкина.
Лента снималась в Крыму и Московской области.
Сюжет:
Три девицы под окном пряли поздно вечерком… А потом много чего было: и любовь, и клевета, и предательство, и чудеса, и множество волшебных приключений, и тридцать три богатыря, и, конечно же, счастливый конец…
Вторая (после мультфильма 1943 года) экранизация сказки Пушкина.
Видео:
В 1990-е годы фильм выпущен на видеокассетах кинообъединением «Крупный план». В 1999 году фильм отреставрирован и выпущен на DVD тем же объединением вместе с компанией «RUSCICO», и в 2008 году выпущена полная отреставрированная версия на DVD тем же объединением.
Шедевр! Удивительная экранизация гениального произведения великого поэта!
Помню, как в детстве с трепетом ждала сказочного превращения лебедя в царевну. И вот она, царевна-лебедь, точно такая, какой я представляла себе её, когда впервые услышала от мамы эту чудесную сказку.
Как хорошо, что советский кинематограф оставил нам, нашим детям, внукам огромную шкатулку с кинодрагоценностями, ведь на современный кинематограф надежды мало.
Общее
Полное имя : J:\Сказка о царе Салтане (1966)\Skazka o Tsare Saltane.1966.DVDRip.[pirat.ca].avi
Формат : AVI
Формат/Информация : Audio Video Interleave
Размер файла : 1,37 Гбайт
Продолжительность : 1 ч. 21 м.
Общий поток : 2402 Кбит/сек
Программа кодирования : VirtualDubMod 1.5.10.3 | www.virtualdub-fr.org || (build 2550/release)
Библиотека кодирования : VirtualDubMod build 2550/release
Видео
Идентификатор : 0
Формат : MPEG-4 Visual
Профиль формата : Advanced [email protected]
Параметр BVOP формата : 1
Параметр QPel формата : Нет
Параметр GMC формата : Без точки перехода
Параметр матрицы формата : Выборочная
Идентификатор кодека : XVID
Идентификатор кодека/Подсказка : XviD
Продолжительность : 1 ч. 21 м.
Битрейт : 1945 Кбит/сек
Ширина : 720 пикселей
Высота : 304 пикселя
Соотношение сторон : 2,35:1
Частота кадров : 25,000 кадров/сек
Цветовое пространство : YUV
Субдискретизация насыщенности : 4:2:0
Битовая глубина : 8 бит
Тип развёртки : Прогрессивная
Метод сжатия : С потерями
Бит/(Пиксели*Кадры) : 0.355
Размер потока : 1,11 Гбайт (81%)
Библиотека кодирования : XviD 73
Аудио
Идентификатор : 1
Формат : AC-3
Формат/Информация : Audio Coding 3
Расширение режима : CM (complete main)
Параметр Endianness формата : Big
Идентификатор кодека : 2000
Продолжительность : 1 ч. 21 м.
Вид битрейта : Постоянный
Битрейт : 448 Кбит/сек
Каналы : 6 каналов
Расположение каналов : Front: L C R, Side: L R, LFE
Частота : 48,0 КГц
Частота кадров : 31,250 кадров/сек (1536 spf)
Метод сжатия : С потерями
Размер потока : 261 Мбайт (19%)
Выравнивание : Разделение по промежуткам
Продолжительность промежутка : 40 мс. (1,00 видеокадр)
Время предзагрузки промежутка : 500 мс.
Download / Скачать

Хотите скачать бесплатно? Зарегистрируйтесь на сайте (ссылка на регистрацию). Pirat.ca - самый быстрый торрент трекер в рунете!

Как скачивать  ·   Что такое торрент  ·   Рейтинг и ограничения

urik

Морской Волк

Пост 03-Фев-2017 17:46 (спустя 1 час 27 минут)

[Q] 

Автору респект!!! Спасибо!!!
[Профиль]  [ЛС] 

jumpersky

Легенда

Пост 04-Фев-2017 11:38 (спустя 17 часов)

[Q] 

Лови бочку Спасибо!!! класс
[Профиль]  [ЛС] 

pdb08

Легенда

70

Пост 04-Фев-2017 18:11 (спустя 6 часов)

[Q] 

Спасибо!!! Раздающему респект!

_________________
[Профиль]  [ЛС] 
Показать сообщения:    
Ответить на тему

Текущее время: Сегодня 20:01

Часовой пояс: GMT + 4



Вы не можете начинать темы
Вы не можете отвечать на сообщения
Вы не можете редактировать свои сообщения
Вы не можете удалять свои сообщения
Вы не можете голосовать в опросах
Вы не можете прикреплять файлы к сообщениям
Вы не можете скачивать файлы

▼ Вниз