Уважаемый Гость!
Вы можете поддержать проект и зарегистрироваться у наших партнеров - онлайн-стратегия MyLands. При регистрации в игре Вы получите код, который сможете активировать после регистрации на pirat.ca и получить 1000 дублонов.

Ваш код:
42dfaac977a7ef29e5167536f5b22936dba18477
 
     

По тонкому льду (2 серии) (Дамир Вятич-Бережных) [1966 г., военный, DVDRip]

Ответить на тему
 
Автор
Сообщение

Пост 04-Фев-2017 15:30

[Q] 

Мархуз

-По тонкому льду (2 серии)-- Производство: СССР, Мосфильм
Режиссер: Дамир Вятич-Бережных
Жанр: военный
Год выпуска: 1966 г.
Продолжительность: 2 х 01:18:32
В ролях: Вадим Захарченко, Юрий Мартынов, Михаил Глузский, Сергей Голованов, Изольда Извицкая, Николай Крючков, Лаврентий Масоха, Олег Мокшанцев, Алексей Эйбоженко, Роман Хомятов, Глеб Стриженов, Феликс Яворский, Виктор Коршунов, Олев Эскола, Николай Крюков, Елена Вольская, Дамир Вятич-Бережных, Юрий Киреев, Николай Погодин-Описание: Фильм поставлен к пятидесятилетию органов государственной безопасности. По одноименной повести Г. Брянцева. О борьбе работников органов госбезопасности против иностранной разведки в предвоенные годы и в годы Великой Отечественной войны. В центре сюжета история трех друзей-разведчиков.-Качество видео: DVDRip
Контейнер: AVI
Видео кодек: XviD
Аудио кодек: MP3
Видео: 640x336; 576 kbps; 25 fps; 0.105 bit/pixel
Аудио: 128.00 kbps; 2 ch; 48 kHz
Cубтитры: отсутствуют
1 серия
General
Complete name : E:\Torrent 2\Po_tonkomu_ldu_[Pirat.ca].torrent\1 серия.avi
Format : AVI
Format/Info : Audio Video Interleave
File size : 396 MiB
Duration : 1h 18mn
Overall bit rate : 704 Kbps
Writing application : VirtualDubMod 1.5.10.2 (build 2540/release)
Writing library : VirtualDub build 35390/release
Video
ID : 0
Format : MPEG-4 Visual
Format profile : Advanced [email protected]
Format settings, BVOP : 2
Format settings, QPel : No
Format settings, GMC : No warppoints
Format settings, Matrix : Default (H.263)
Muxing mode : Packed bitstream
Codec ID : XVID
Codec ID/Hint : XviD
Duration : 1h 18mn
Bit rate : 567 Kbps
Width : 640 pixels
Height : 336 pixels
Display aspect ratio : 1.905
Frame rate : 25.000 fps
Color space : YUV
Chroma subsampling : 4:2:0
Bit depth : 8 bits
Scan type : Progressive
Compression mode : Lossy
Bits/(Pixel*Frame) : 0.105
Stream size : 318 MiB (80%)
Writing library : XviD 73
Audio
ID : 1
Format : MPEG Audio
Format version : Version 1
Format profile : Layer 3
Mode : Joint stereo
Mode extension : MS Stereo
Codec ID : 55
Codec ID/Hint : MP3
Duration : 1h 18mn
Bit rate mode : Constant
Bit rate : 128 Kbps
Channel(s) : 2 channels
Sampling rate : 48.0 KHz
Compression mode : Lossy
Stream size : 71.9 MiB (18%)
Alignment : Aligned on interleaves
Interleave, duration : 40 ms (1.00 video frame)
Interleave, preload duratio : 504 ms
2 серия
General
Complete name : E:\Torrent 2\Po_tonkomu_ldu_[Pirat.ca].torrent\2 серия.avi
Format : AVI
Format/Info : Audio Video Interleave
File size : 412 MiB
Duration : 1h 25mn
Overall bit rate : 673 Kbps
Writing application : VirtualDubMod 1.5.10.2 (build 2540/release)
Writing library : VirtualDub build 35390/release
Video
ID : 0
Format : MPEG-4 Visual
Format profile : Advanced [email protected]
Format settings, BVOP : 2
Format settings, QPel : No
Format settings, GMC : No warppoints
Format settings, Matrix : Default (H.263)
Muxing mode : Packed bitstream
Codec ID : XVID
Codec ID/Hint : XviD
Duration : 1h 25mn
Bit rate : 536 Kbps
Width : 640 pixels
Height : 336 pixels
Display aspect ratio : 1.905
Frame rate : 25.000 fps
Color space : YUV
Chroma subsampling : 4:2:0
Bit depth : 8 bits
Scan type : Progressive
Compression mode : Lossy
Bits/(Pixel*Frame) : 0.100
Stream size : 328 MiB (80%)
Writing library : XviD 73
Audio
ID : 1
Format : MPEG Audio
Format version : Version 1
Format profile : Layer 3
Mode : Joint stereo
Mode extension : MS Stereo
Codec ID : 55
Codec ID/Hint : MP3
Duration : 1h 25mn
Bit rate mode : Constant
Bit rate : 128 Kbps
Channel(s) : 2 channels
Sampling rate : 48.0 KHz
Compression mode : Lossy
Stream size : 78.4 MiB (19%)
Alignment : Aligned on interleaves
Interleave, duration : 40 ms (1.00 video frame)
Interleave, preload duratio : 504 ms

Раздача с 14.00 до 2.00 (время московское)
Download / Скачать

Хотите скачать бесплатно? Зарегистрируйтесь на сайте (ссылка на регистрацию). Pirat.ca - самый быстрый торрент трекер в рунете!

Как скачивать  ·   Что такое торрент  ·   Рейтинг и ограничения

balamutych 8

Корсар

Пост 05-Фев-2017 02:56 (спустя 11 часов)

[Q] 

Спасибо-отличнное кино
[Профиль]  [ЛС] 
Показать сообщения:    
Ответить на тему

Текущее время: Сегодня 22:27

Часовой пояс: GMT + 4



Вы не можете начинать темы
Вы не можете отвечать на сообщения
Вы не можете редактировать свои сообщения
Вы не можете удалять свои сообщения
Вы не можете голосовать в опросах
Вы не можете прикреплять файлы к сообщениям
Вы не можете скачивать файлы

▼ Вниз