Уважаемый Гость!
Вы можете поддержать проект и зарегистрироваться у наших партнеров - онлайн-стратегия MyLands. При регистрации в игре Вы получите код, который сможете активировать после регистрации на pirat.ca и получить 1000 дублонов.

Ваш код:
a6cd8388a80c7912406d9df531cdb62e3c3761ed
 
     

Взять живым (3 серии) (Вадим Лысенко) [1982 г., военный, DVDRip]

Ответить на тему
 
Автор
Сообщение

Пост 07-Фев-2017 00:28

[Q] 

Мархуз

-Взять живым (3 серии)-- Производство: СССР, Одесская киностудия
Режиссер: Вадим Лысенко
Жанр: военный
Год выпуска: 1982 г.
Продолжительность: 3 х 01:07:09
В ролях: Федор Сухов, Александр Потапов, Игорь Ефимов, Юрий Соловьёв, Леонид Неведомский, Георгий Назаренко, Александр Игнатуша, Сергей Маковецкий, Александр Беспалый, Анатолий Юрченко, Виктор Павлов, Владимир Зайцев, Елена Козелькова, Владимир Шакало, Александр Леньков, Елизавета Суржикова, Ирина Зеленко, Александр Жданов-Описание: Фильм о судьбе солдата Василия Ромашкина, вчерашнего десятиклассника, прошедшего через все испытания Великой Отечественной войны и закончившего боевой путь офицером разведки...-Качество видео: DVDRip
Контейнер: AVI
Видео кодек: DivX
Аудио кодек: MP3
Видео: 688x512; 1412 kbps; 25 fps; 0.16 bit/pixel
Аудио: 128.00 kbps; 2 ch; 48 kHz
Cубтитры: отсутствуют
1 серия
General
Complete name : E:\Torrent 2\Vzat_zivim_[Pirat.ca].torrent\серия (1).avi
Format : AVI
Format/Info : Audio Video Interleave
File size : 744 MiB
Duration : 1h 7mn
Overall bit rate : 1 549 Kbps
Director : Xamasas
Writing application : VirtualDubMod 1.5.10.2 (build 2540/release)
Video
ID : 0
Format : MPEG-4 Visual
Format settings, BVOP : 1
Format settings, QPel : No
Format settings, GMC : No warppoints
Format settings, Matrix : Default (H.263)
Muxing mode : Packed bitstream
Codec ID : DX50
Codec ID/Hint : DivX 5
Duration : 1h 7mn
Bit rate : 1 412 Kbps
Width : 688 pixels
Height : 512 pixels
Display aspect ratio : 4:3
Frame rate : 25.000 fps
Color space : YUV
Chroma subsampling : 4:2:0
Bit depth : 8 bits
Scan type : Progressive
Compression mode : Lossy
Bits/(Pixel*Frame) : 0.160
Stream size : 678 MiB (91%)
Writing library : DivX 5.2.1 (WaffleDay) (UTC 2004-09-08)
Audio
ID : 1
Format : MPEG Audio
Format version : Version 1
Format profile : Layer 3
Mode : Joint stereo
Mode extension : MS Stereo
Codec ID : 55
Codec ID/Hint : MP3
Duration : 1h 7mn
Bit rate mode : Constant
Bit rate : 128 Kbps
Channel(s) : 2 channels
Sampling rate : 48.0 KHz
Compression mode : Lossy
Stream size : 61.5 MiB (8%)
Alignment : Aligned on interleaves
Interleave, duration : 40 ms (1.00 video frame)
Interleave, preload duratio : 504 ms
2 серия
General
Complete name : E:\Torrent 2\Vzat_zivim_[Pirat.ca].torrent\серия (2).avi
Format : AVI
Format/Info : Audio Video Interleave
File size : 744 MiB
Duration : 1h 8mn
Overall bit rate : 1 529 Kbps
Director : Xamasas
Writing application : VirtualDubMod 1.5.10.2 (build 2540/release)
Video
ID : 0
Format : MPEG-4 Visual
Format settings, BVOP : 1
Format settings, QPel : No
Format settings, GMC : No warppoints
Format settings, Matrix : Default (H.263)
Muxing mode : Packed bitstream
Codec ID : DX50
Codec ID/Hint : DivX 5
Duration : 1h 8mn
Bit rate : 1 391 Kbps
Width : 688 pixels
Height : 512 pixels
Display aspect ratio : 4:3
Frame rate : 25.000 fps
Color space : YUV
Chroma subsampling : 4:2:0
Bit depth : 8 bits
Scan type : Progressive
Compression mode : Lossy
Bits/(Pixel*Frame) : 0.158
Stream size : 677 MiB (91%)
Writing library : DivX 5.2.1 (WaffleDay) (UTC 2004-09-08)
Audio
ID : 1
Format : MPEG Audio
Format version : Version 1
Format profile : Layer 3
Mode : Joint stereo
Codec ID : 55
Codec ID/Hint : MP3
Duration : 1h 8mn
Bit rate mode : Constant
Bit rate : 128 Kbps
Channel(s) : 2 channels
Sampling rate : 48.0 KHz
Compression mode : Lossy
Stream size : 62.3 MiB (8%)
Alignment : Aligned on interleaves
Interleave, duration : 40 ms (1.00 video frame)
Interleave, preload duratio : 504 ms
3 серия
General
Complete name : E:\Torrent 2\Vzat_zivim_[Pirat.ca].torrent\серия (3).avi
Format : AVI
Format/Info : Audio Video Interleave
File size : 744 MiB
Duration : 1h 6mn
Overall bit rate : 1 568 Kbps
Director : Xamasas
Writing application : VirtualDubMod 1.5.10.2 (build 2540/release)
Video
ID : 0
Format : MPEG-4 Visual
Format settings, BVOP : 1
Format settings, QPel : No
Format settings, GMC : No warppoints
Format settings, Matrix : Default (H.263)
Muxing mode : Packed bitstream
Codec ID : DX50
Codec ID/Hint : DivX 5
Duration : 1h 6mn
Bit rate : 1 430 Kbps
Width : 688 pixels
Height : 512 pixels
Display aspect ratio : 4:3
Frame rate : 25.000 fps
Color space : YUV
Chroma subsampling : 4:2:0
Bit depth : 8 bits
Scan type : Progressive
Compression mode : Lossy
Bits/(Pixel*Frame) : 0.162
Stream size : 679 MiB (91%)
Writing library : DivX 5.2.1 (WaffleDay) (UTC 2004-09-08)
Audio
ID : 1
Format : MPEG Audio
Format version : Version 1
Format profile : Layer 3
Mode : Joint stereo
Mode extension : MS Stereo
Codec ID : 55
Codec ID/Hint : MP3
Duration : 1h 6mn
Bit rate mode : Constant
Bit rate : 128 Kbps
Channel(s) : 2 channels
Sampling rate : 48.0 KHz
Compression mode : Lossy
Stream size : 60.8 MiB (8%)
Alignment : Aligned on interleaves
Interleave, duration : 40 ms (1.00 video frame)
Interleave, preload duratio : 504 ms

Раздача с 14.00 до 2.00 (время московское)
Download / Скачать

Хотите скачать бесплатно? Зарегистрируйтесь на сайте (ссылка на регистрацию). Pirat.ca - самый быстрый торрент трекер в рунете!

Как скачивать  ·   Что такое торрент  ·   Рейтинг и ограничения

vovan200976

Флибустьер

Пост 08-Фев-2017 20:39 (спустя 1 день 20 часов)

[Q] 

Замечательный фильм эпохи СССР !!! Лови бочку
[Профиль]  [ЛС] 

balamutych 8

Корсар

Пост 09-Фев-2017 21:58 (спустя 1 день 1 час)

[Q] 

Спасибо большое,люблю такое кино
[Профиль]  [ЛС] 

R_O_Z_A

Корсар

Пост 11-Фев-2017 21:32 (спустя 1 день 23 часа)

[Q] 

Спасибо за фильм Спасибо!!! Автору респект!!!
[Профиль]  [ЛС] 

isaenko1957

Морской Волк

Пост 06-Мар-2017 08:39 (спустя 22 дня)

[Q] 

Спасибо за фильм Спасибо!!!

_________________
Мы не настолько богаты что бы покупать дешевые вещи !
[Профиль]  [ЛС] 
Показать сообщения:    
Ответить на тему

Текущее время: Сегодня 15:43

Часовой пояс: GMT + 4



Вы не можете начинать темы
Вы не можете отвечать на сообщения
Вы не можете редактировать свои сообщения
Вы не можете удалять свои сообщения
Вы не можете голосовать в опросах
Вы не можете прикреплять файлы к сообщениям
Вы не можете скачивать файлы

▼ Вниз