Уважаемый Гость!
Вы можете поддержать проект и зарегистрироваться у наших партнеров - онлайн-стратегия MyLands. При регистрации в игре Вы получите код, который сможете активировать после регистрации на pirat.ca и получить 1000 дублонов.

Ваш код:
6e74277781110e9b49c3c0dd24e1bed54391613e
 
     

В.Давыдов и Голиаф (Геннадий Байсак) [1985 г., короткометражка, комедия, DVDRip]

Ответить на тему
 
Автор
Сообщение

Пост 23-Фев-2017 23:57

[Q] 

TERMOS

Легенда

-В.Давыдов и Голиаф-- Производство: СССР
Режиссер: Геннадий Байсак
Жанр: короткометражка, комедия
Год выпуска: 1985 г.
Продолжительность: 00:26:01
В ролях: Алексей Петренко, Александр Солдатов, Михаил Бочаров, Михаил Бычков, Виктор Горбунчиков, Юрий Чернов-Описание: Семиклассника Витю Давыдова отправляют на практику на завод. Его наставником назначают рабочего по кличке Голиаф. Тот дает школьнику задание – покрасить мотор. Мальчик справляется с задачей и жаждет новых дел. Но Голиаф отправляет его домой, а сам… выносит из стен предприятия свежевыкрашенный механизм - для поливки собственного сада. Витя становится этому свидетелем.
    Кристально честный пионер, конечно же, против хищения государственной собственности! Он возвращает мотор на завод. Голиаф вновь забирает его, Витя – возвращает. Начинается настоящая война, в которой "несун" могучего телосложения терпит сокрушительное поражение!
- -Качество видео: DVDRip
Контейнер: AVI
Видео кодек: DivX
Аудио кодек: AC3
Видео: 720x544 (1.32:1), 25.000 fps, ~2000 kbps avg
Аудио: 48 kHz, AC3 Dolby Digital, 2/0 (L,R) ch, ~192.00 kbps avg
Cубтитры: отсутствуют
Код:
Format                      : AVI
Format/Info                 : Audio Video Interleave
File size                   : 410 MiB
Duration                    : 26mn 0s
Overall bit rate            : 2 202 Kbps
Writing application         : VirtualDubModRus 1.5.10.2 (build 2542/release)
Writing library             : VirtualDubMod build 2542/release
Video
ID                          : 0
Format                      : MPEG-4 Visual
Format settings, BVOP       : 1
Format settings, QPel       : No
Format settings, GMC        : No warppoints
Format settings, Matrix     : Default (H.263)
Muxing mode                 : Packed bitstream
Codec ID                    : DX50
Codec ID/Hint               : DivX 5
Duration                    : 26mn 0s
Bit rate                    : 2 000 Kbps
Width                       : 720 pixels
Height                      : 544 pixels
Display aspect ratio        : 4:3
Frame rate                  : 25.000 fps
Color space                 : YUV
Chroma subsampling          : 4:2:0
Bit depth                   : 8 bits
Scan type                   : Progressive
Compression mode            : Lossy
Bits/(Pixel*Frame)          : 0.204
Stream size                 : 372 MiB (91%)
Writing library             : DivX 6.8.3-6.8.4 (UTC 2008-06-07)
Audio
ID                          : 1
Format                      : AC-3
Format/Info                 : Audio Coding 3
Mode extension              : CM (complete main)
Format settings, Endianness : Big
Codec ID                    : 2000
Duration                    : 26mn 0s
Bit rate mode               : Constant
Bit rate                    : 192 Kbps
Channel(s)                  : 2 channels
Channel positions           : Front: L R
Sampling rate               : 48.0 KHz
Bit depth                   : 16 bits
Compression mode            : Lossy
Stream size                 : 35.7 MiB (9%)
Alignment                   : Aligned on interleaves
Interleave, duration        : 40 ms (1.00 video frame)
Interleave, preload duratio : 512 ms
Download / Скачать

Хотите скачать бесплатно? Зарегистрируйтесь на сайте (ссылка на регистрацию). Pirat.ca - самый быстрый торрент трекер в рунете!

Как скачивать  ·   Что такое торрент  ·   Рейтинг и ограничения

TERMOS ®

Легенда

19662

Пост 23-Фев-2017 23:59 (спустя 1 минута)

[Q] 

Вчера ночью скоропостижно скончался выдающийся русский актёр Алексей Петренко. Пусть земля ему будет пухом.
Помянем. И улыбнёмся...

_________________
[Профиль]  [ЛС] 
Показать сообщения:    
Ответить на тему

Текущее время: Сегодня 13:39

Часовой пояс: GMT + 4



Вы не можете начинать темы
Вы не можете отвечать на сообщения
Вы не можете редактировать свои сообщения
Вы не можете удалять свои сообщения
Вы не можете голосовать в опросах
Вы не можете прикреплять файлы к сообщениям
Вы не можете скачивать файлы

▼ Вниз