Уважаемый Гость!
Вы можете поддержать проект и зарегистрироваться у наших партнеров - онлайн-стратегия MyLands. При регистрации в игре Вы получите код, который сможете активировать после регистрации на pirat.ca и получить 1000 дублонов.

Ваш код:
6e74277781110e9b49c3c0dd24e1bed54391613e
 
     

Осенний марафон (Георгий Данелия) [1979 г., Драма, мелодрама, комедия, DVDRip-AVC]

Ответить на тему
 
Автор
Сообщение

Пост 14-Окт-2017 19:37

[Q] 

Evgesha 76

Корсар

-Осенний марафон-- Производство: СССР: Мосфильм, Ленфильм
Режиссёр: Георгий Данелия
Жанр: Драма, мелодрама, комедия
Год выпуска: 1979 г.
Продолжительность: 01:28:44
Российская премьера: 30 августа 1979
Дата выхода DVD: 3 февраля 2014, «Lizard Cinema Trade»-В ролях: Олег Басилашвили, Наталья Гундарева, Евгений Леонов, Марина Неёлова, Николай Крючков, Ольга Богданова, Борислав Брондуков, Владимир Фирсов, Владимир Грамматиков, Людмила Иванова, Норберт Кухинке, Дмитрий Матвеев, Вадим Медведев, Никита Подгорный, Владимир Пожидаев, Георгий Семёнов, Галина Волчек, Георгий Данелия, Рене Хобуа, Эдуард Аблам.-Описание: Печальная комедия - так назвал свой фильм Георгий Данелия. К герою этой трагикомедии Бузыкину постоянно тянутся люди. Он отзывчив, никому ни в чем не может отказать. Будучи по характеру мягким человеком, Бузыкин мало думает о себе и постоянно попадает во всевозможные неприятные истории. Необходимость делать выбор, отдавать предпочтение чему-то или кому-то, для него всегда сложная проблема. Так же и в личной жизни: не желая обидеть любовницу, он невольно обижает жену, при этом, не желая терять любовницу, никак не может решиться на развод… Однако он пробует изменить обычный порядок вещей, и это ему почти удается... .-КиноПоиск
IMDB
Качество видео: DVDRip-AVC
Контейнер: MKV
Видео кодек: MPEG4-AVC
Аудио кодек: AC3
Видео: MPEG-4 AVC, 2250 Кбит/с, 696х[email protected], bit/pix 0.224
Аудио: AC3, 48kHz, 6 ch, 448 Кбит/с,
Cубтитры: русские, английские
Формат субтитров: UTF-8
Берлинский кинофестиваль, 1980 год
Победитель (1):
Премия международного евангелического жюри - специальная рекомендация (программа «Форум»)
Венецианский кинофестиваль, 1979 год
Победитель (1):
Премия итальянских журналистов за лучшую мужскую роль ( Евгений Леонов )
Сан-Себастьян, 1979 год
Победитель (1):
Золотая раковина.
Известно, что автор сценария Александр Володин положил в основу сюжета свою собственную жизненную ситуацию. В сходных ситуациях оказывались многие другие создатели фильма: Георгий Данелия (тогда он развёлся со своей второй женой, Любовью Соколовой), Наталья Гундарева (её второй муж, Виктор Корешков, влюбился в певицу Валентину Игнатьеву), Марина Неёлова (она оказывалась в положении своей героини; однако кто был её Бузыкин, неизвестно, — возможно, шахматист Гарри Каспаров), Галина Волчек (она побывала в положении и жены Бузыкина, и любовницы — в частности, известно что ей изменял её первый муж, Евгений Евстигнеев). Только исполнитель роли самого Бузыкина, Олег Басилашвили, не мог понять сути фильма. Но спустя несколько лет, встретив Данелию, он сказал ему «Да, теперь я знаю, о чём мы сняли кино…»
В таких ситуациях оказывались и другие люди, в том числе некоторые знакомые мужчины Данелии. Неудивительно, что после премьеры они заподозрили, что он списал сюжет с них. Кроме того, в кинематографической среде обратили внимание на то, что имя и отчество Бузыкина совпадают с именем и отчеством композитора фильма Андрея Петрова, а инициалы жены Бузыкина — с инициалами жены Петрова, Натальи Ефимовны, которую, как и первую, часто звали «эн-е». Однако Петров утверждает, что любовницы по имени Аллочка у него не было.
Фильм вызвал критику многих женщин. Одних не устраивало то, что Бузыкин не вернулся окончательно к жене, других — что не ушёл к любовнице. Это объяснялось тем, что эти женщины сами оказывались на месте соответственно жены или любовницы. В частности, на просмотре фильма на фестивале в Сан-Себастьяне присутствовала переводчица, которая 3 года была влюблена в женатого мужчину, а он никак не решался уйти от жены. Под конец фильма, когда стало ясно, что Бузыкин не уйдёт от жены, она крикнула Данелии «Вы подлец, Георгий Николаевич» — и выбежала из зала.
Общее
Уникальный идентификатор : 177328835205977074320605009932609382351 (0x85684A9765E3040C863272AF9703E7CF)
Полное имя :Осенний марафон_1979-DVDRip-AVC.mkv
Формат : Matroska
Версия формата : Version 2
Размер файла : 1,67 Гбайт
Продолжительность : 1 ч. 28 м.
Общий поток : 2699 Кбит/сек
Дата кодирования : UTC 2015-09-07 00:40:50
Программа кодирования : mkvmerge v5.8.0 ('No Sleep / Pillow') built on Sep 2 2012 15:37:04
Библиотека кодирования : libebml v1.2.3 + libmatroska v1.3.0
Видео
Идентификатор : 1
Формат : AVC
Формат/Информация : Advanced Video Codec
Профиль формата : [email protected]
Параметр CABAC формата : Да
Параметр RefFrames формата : 14 кадров
Идентификатор кодека : V_MPEG4/ISO/AVC
Продолжительность : 1 ч. 28 м.
Битрейт : 2250 Кбит/сек
Ширина : 696 пикселей
Высота : 576 пикселей
Соотношение сторон : 1,288
Соотношение сторон в оригинале : 1,289
Режим частоты кадров : Постоянный
Частота кадров : 25,000 кадров/сек
Цветовое пространство : YUV
Субдискретизация насыщенности : 4:2:0
Битовая глубина : 8 бит
Тип развёртки : Прогрессивная
Бит/(Пиксели*Кадры) : 0.224
Размер потока : 1,36 Гбайт (81%)
Библиотека кодирования : x264 core 146 r2538 121396c
Настройки программы : cabac=1 / ref=14 / deblock=1:-2:-2 / analyse=0x3:0x133 / me=umh / subme=10 / psy=1 / psy_rd=1.05:0.05 / mixed_ref=1 / me_range=32 / chroma_me=1 / trellis=2 / 8x8dct=1 / cqm=0 / deadzone=21,11 / fast_pskip=0 / chroma_qp_offset=-3 / threads=12 / lookahead_threads=2 / sliced_threads=0 / nr=0 / decimate=0 / interlaced=0 / bluray_compat=0 / constrained_intra=0 / bframes=8 / b_pyramid=2 / b_adapt=2 / b_bias=0 / direct=3 / weightb=1 / open_gop=0 / weightp=2 / keyint=250 / keyint_min=25 / scenecut=40 / intra_refresh=0 / rc=2pass / mbtree=0 / bitrate=2250 / ratetol=1.0 / qcomp=0.65 / qpmin=0 / qpmax=45 / qpstep=4 / cplxblur=20.0 / qblur=0.5 / ip_ratio=1.40 / pb_ratio=1.30 / aq=1:1.00
Язык : English
Default : Да
Forced : Нет
Цветовой диапазон : Limited
Основные цвета : BT.601 PAL
Характеристики трансфера : BT.470 System B, BT.470 System G
Коэффициенты матрицы : BT.470 System B, BT.470 System G
Аудио
Идентификатор : 2
Формат : AC-3
Формат/Информация : Audio Coding 3
Параметр Endianness формата : Big
Идентификатор кодека : A_AC3
Продолжительность : 1 ч. 28 м.
Вид битрейта : Постоянный
Битрейт : 448 Кбит/сек
Каналы : 6 каналов
Расположение каналов : Front: L C R, Side: L R, LFE
Частота : 48,0 КГц
Частота кадров : 31,250 кадров/сек (1536 SPF)
Битовая глубина : 16 бит
Метод сжатия : С потерями
Задержка видео : 12 с. 160 мс.
Размер потока : 284 Мбайт (17%)
Язык : Russian
ServiceKind/String : Complete Main
Default : Да
Forced : Нет
Текст #1
Идентификатор : 3
Формат : UTF-8
Идентификатор кодека : S_TEXT/UTF8
Идентификатор кодека/Информация : UTF-8 Plain Text
Язык : Russian
Default : Нет
Forced : Нет
Текст #2
Идентификатор : 4
Формат : UTF-8
Идентификатор кодека : S_TEXT/UTF8
Идентификатор кодека/Информация : UTF-8 Plain Text
Язык : English
Default : Нет
Forced : Нет
Меню
00:00:00.000 : :1. Пролог (Prologue)
00:03:24.000 : :2. Утро (Morning)
00:09:45.120 : :3. На службе (At Work)
00:11:37.920 : :4. Пуговица (Button)
00:14:29.760 : :5. В редакции (At The Publisher's)
00:16:00.960 : :6. Цветочки (Flowers)
00:18:12.000 : :7. Дядя Коля (Uncle Kolia)
00:20:37.920 : :8. Куртка (Jacket)
00:24:00.960 : :9. Нина (Nina)
00:29:04.800 : :10. Дочь (Daughter)
00:31:49.920 : :11. Ремонт (Redecorating)
00:32:24.000 : :12. В институте (At The Institute)
00:34:01.440 : :13. Разрыв? (Breakup?)
00:36:13.440 : :14. Драка (Fight)
00:38:07.680 : :15. Танцы (Dansing)
00:43:32.640 : :16. Работа над текстом (Working On The Text)
00:47:21.600 : :17. Сосед (Neighbor)
00:50:25.440 : :18. Русская водка (Russian Vodka)
00:56:51.840 : :19. За грибами (Mushroom-Picking)
01:00:03.840 : :20. Ключ (Key)
01:03:20.640 : :21. Остров Жохова (Island Of Zhokhov)
01:06:28.320 : :22. Ночной звонок (Night Call)
01:09:38.880 : :23. Арест Билла (Bill's Arrest)
01:11:15.360 : :24. Вытрезвитель (Drying-Out Clinic)
01:13:26.880 : :25. Кирпич (Brick)
01:16:25.920 : :26. Кафедра (Faculty Meeting)
01:19:50.400 : :27. Портвейн с водкой (Port Wine With Vodka)
01:23:16.800 : :28. Разговор (Conversation)
01:27:11.520 : :29. Титры (Credits)
raw [info]: 696x576p 16:15 @ 25/1 fps (cfr)
x264 [info]: using SAR=16/15
x264 [info]: using cpu capabilities: MMX2 SSE2Fast SSSE3 SSE4.2 AVX
x264 [info]: profile High, level 4.1
x264 [info]: frame I:689 Avg QP:17.77 size: 75705
x264 [info]: frame P:28802 Avg QP:21.25 size: 29255
x264 [info]: frame B:103585 Avg QP:22.76 size: 5817
Download / Скачать

Хотите скачать бесплатно? Зарегистрируйтесь на сайте (ссылка на регистрацию). Pirat.ca - самый быстрый торрент трекер в рунете!

Как скачивать  ·   Что такое торрент  ·   Рейтинг и ограничения

Показать сообщения:    
Ответить на тему

Текущее время: Сегодня 13:42

Часовой пояс: GMT + 4



Вы не можете начинать темы
Вы не можете отвечать на сообщения
Вы не можете редактировать свои сообщения
Вы не можете удалять свои сообщения
Вы не можете голосовать в опросах
Вы не можете прикреплять файлы к сообщениям
Вы не можете скачивать файлы

▼ Вниз