Уважаемый Гость!
Вы можете поддержать проект и зарегистрироваться у наших партнеров - онлайн-стратегия MyLands. При регистрации в игре Вы получите код, который сможете активировать после регистрации на pirat.ca и получить 1000 дублонов.

Ваш код:
6e74277781110e9b49c3c0dd24e1bed54391613e
 
     

Королева бензоколонки (Николай Литус, Алексей Мишурин) [1962 г., Комедия, HDTV, 1080i]

Ответить на тему
 
Автор
Сообщение

Пост 17-Ноя-2017 15:07

[Q] 

dimas1000

Морской Волк

-Королева бензоколонки-- Производство: СССР, Киностудия им. А. Довженко
Режиссёр: Николай Литус, Алексей Мишурин
Жанр: Комедия
Год выпуска: 1962 г.
Продолжительность: 01:12:54
Озвучивание: Оригинал
В ролях: Надежда Румянцева, Андрей Сова, Алексей Кожевников, Нонна Копержинская, Юрий Белов, Владимир Белокуров, Сергей Блинников, Виктор Мягкий, Николай Яковченко, Евгения Опалова, Виктор Халатов, Павел Винник, Александр Хвыля, Сергей Шеметило, Николай Панасьев, Валентин Грудинин, Григорий Тесля, Валентин Черняк, Александр Толстых, Валентин Зиновьев, Семён Лихогоденко, Валерий Панарин, Борис Болдыревский, Михаил Крамар-Описание: Как и все девушки шестидесятых годов, Людмила мечтает танцевать в балете на льду. Но она не проходит по конкурсу - и меняет свою мечту: после ряда приключений Людмила устраивается на бензоколонке заправщицей...-Качество видео: HDTV (1080i)
Контейнер: TS
Видео кодек: MPEG4 AVC
Аудио кодек: AC3-MP2
Видео: MPEG-4 AVC, (1920x1080),7751Кбит/с, 25.000 кадра/сек
Аудио: AC3, 6 ch,384 kbps (Rus) 48.0 KHz Оригинал
Аудио: MP2, 2 ch, 192 kbps (Rus) 48.0 KHz Оригинал
Cубтитры: отсутствуют
Тип потока: Видео
Длительность: 01:12:56
Кодек: AVC
Кодек/описание: Advanced Video Codec
Кодек/профиль: [email protected]
Кодек/ID: 27
Кодек/CABAC: Yes
Кодек/ReFrames: 4 frames
Размеры изображения: 1920 x 1080 (16:9)
Частота кадров: 25.000 fps
Размер потока: 3.95 GiB (88%)
Битрейт: 7 751 Kbps
Стандарт: Component
Цветовое пространство: YUV
Тип развёртки: Interlaced
Колориметрия: 4:2:0
Глубина: 8 bits
:
Тип потока: Звук #1
Язык: Russian
Длительность: 01:12:56.928
Кодек: MPEG Audio
Кодек/профиль: Layer 2
Кодек/ID: 3
Частота дискретизации: 48.0 KHz
Каналов: 2 channels
Битрейт: 192 Kbps
Битрейт/тип: Constant
Размер потока: 100 MiB (2%)
Метод сжатия: Lossy
:
Тип потока: Звук #2
Язык: Russian
Длительность: 01:12:56.896
Кодек: AC-3
Кодек/описание: Audio Coding 3
Кодек/ID: 6
Частота дискретизации: 48.0 KHz
Каналов: 6 channels
Битрейт: 384 Kbps
Битрейт/тип: Constant
Размер потока: 200 MiB (4%)
Глубина: 16 bits
Метод сжатия: Lossy
Download / Скачать

Хотите скачать бесплатно? Зарегистрируйтесь на сайте (ссылка на регистрацию). Pirat.ca - самый быстрый торрент трекер в рунете!

Как скачивать  ·   Что такое торрент  ·   Рейтинг и ограничения



Последний раз редактировалось: dimas1000 (2017-11-17 15:56), всего редактировалось 1 раз

dimas1000 ®

Морской Волк

514

Пост 17-Ноя-2017 15:10 (спустя 3 минуты)

[Q] 

Всем качать!!! всем качать я фильмы заливаю только в HD Супер!
[Профиль]  [ЛС] 

steinel

Лоцман

Пост 19-Ноя-2017 09:50 (спустя 1 день 18 часов)

[Q] 

-Мне два по 100 и в одну посуду.
-В одну посудину не положено по инструкции.
-И огурчик. Прошу! К полумерам не привык! )))) клааас
Раздающему респект!

_________________
... а не хлопнуть ли нам по рюмашке? (с) х/ф Покровские ворота
[Профиль]  [ЛС] 
Показать сообщения:    
Ответить на тему

Текущее время: Сегодня 13:37

Часовой пояс: GMT + 4



Вы не можете начинать темы
Вы не можете отвечать на сообщения
Вы не можете редактировать свои сообщения
Вы не можете удалять свои сообщения
Вы не можете голосовать в опросах
Вы не можете прикреплять файлы к сообщениям
Вы не можете скачивать файлы

▼ Вниз