Уважаемый Гость!
Вы можете поддержать проект и зарегистрироваться у наших партнеров - онлайн-стратегия MyLands. При регистрации в игре Вы получите код, который сможете активировать после регистрации на pirat.ca и получить 1000 дублонов.

Ваш код:
6e74277781110e9b49c3c0dd24e1bed54391613e
 
     

Ирония судьбы, или С легким паром! (Эльдар Рязанов) [1975 г., Комедия, HDTV, 1080i]

Ответить на тему
 
Автор
Сообщение

Пост 18-Ноя-2017 15:40

[Q] 

dimas1000

Морской Волк

-Ирония судьбы, или С легким паром!-- Производство: СССР, Мосфильм
Режиссёр: Эльдар Рязанов
Жанр: Комедия
Год выпуска: 1975 г.
Продолжительность: 02:59:58
Озвучивание: Оригинал
В ролях: Андрей Мягков, Барбара Брыльска, Юрий Яковлев, Ольга Науменко, Любовь Добржанская, Георгий Бурков, Александр Ширвиндт, Александр Белявский, Лия Ахеджакова, Валентина Талызина, Любовь Соколова, Готлиб Ронинсон, Эльдар Рязанов, Николай Погодин, Александр Постников, Александр Беляев (III), Елена Наумкина-Описание: Под Новый год приятели отправились в баню. Вымылись, выпили... Один из них должен был лететь после этого в Ленинград, но кто именно, они не помнили. В самолет запихнули в бессознательном состоянии Женю Лукашина, которого дожидалась невеста в московской квартире. Прилетев в Ленинград, Женя назвал таксисту свой адрес, вошел в дом, открыл дверь своим ключом и лег отсыпаться. В это время домой вернулась молодая хозяйка ленинградской квартиры, намереваясь встретить праздник вместе со своим женихом...-Качество видео: HDTV (1080i)
Контейнер: TS
Видео кодек: MPEG4 AVC
Аудио кодек: MP2
Видео: MPEG-4 ,AVC (1920x1080), 7513 Кбит/с, 25.000 кадра/сек
Аудио: MP 2, 2 ch,192 kbps (Rus) 48.0 KHz Оригинал
Тип потока: Видео
Длительность: 02:59:58
Кодек: AVC
Кодек/описание: Advanced Video Codec
Кодек/профиль: [email protected]
Кодек/ID: 27
Кодек/CABAC: Yes
Кодек/ReFrames: 3 frames
Размеры изображения: 1920 x 1080 (16:9)
Частота кадров: 25.000 fps
Размер потока: 9.44 GiB (93%)
Битрейт: 7 513 Kbps
Стандарт: Component
Цветовое пространство: YUV
Тип развёртки: Interlaced
Колориметрия: 4:2:0
Глубина: 8 bits
:
Тип потока: Звук #1
Язык: Russian
Длительность: 02:59:58.208
Кодек: MPEG Audio
Кодек/профиль: Layer 2
Кодек/ID: 4
Частота дискретизации: 48.0 KHz
Каналов: 2 channels
Битрейт: 192 Kbps
Битрейт/тип: Constant
Размер потока: 247 MiB (2%)
Метод сжатия: Lossy
Download / Скачать

Хотите скачать бесплатно? Зарегистрируйтесь на сайте (ссылка на регистрацию). Pirat.ca - самый быстрый торрент трекер в рунете!

Как скачивать  ·   Что такое торрент  ·   Рейтинг и ограничения

dimas1000 ®

Морской Волк

514

Пост 18-Ноя-2017 15:42 (спустя 1 минута)

[Q] 

Всем качать!!! Пиратка рулез!!! фильм класс!!!!!!!
[Профиль]  [ЛС] 

pacco

Корсар

Пост 18-Ноя-2017 17:02 (спустя 1 час 20 минут)

[Q] 

супер, спасибо!!!
[Профиль]  [ЛС] 

jumpersky

Легенда

Пост 19-Ноя-2017 16:41 (спустя 23 часа)

[Q] 

в память Великого Мастера... Супер!
[Профиль]  [ЛС] 
Показать сообщения:    
Ответить на тему

Текущее время: Сегодня 13:40

Часовой пояс: GMT + 4



Вы не можете начинать темы
Вы не можете отвечать на сообщения
Вы не можете редактировать свои сообщения
Вы не можете удалять свои сообщения
Вы не можете голосовать в опросах
Вы не можете прикреплять файлы к сообщениям
Вы не можете скачивать файлы

▼ Вниз