ML
     
  Уважаемый Гость!
Вы можете поддержать проект и зарегистрироваться у наших партнеров - онлайн-стратегия MyLands. При регистрации в игре Вы получите код, который сможете активировать после регистрации на pirat.ca и получить 1000 дублонов.

Ваш код:
34514219cfad5497a1822ecc1269bea77988f9aa
 
     

Волга-Волга (Реставрация в цвете) (Григорий Александров) [1938 г., Музыкальная комедия, DVDRip]

Ответить на тему
 
Автор
Сообщение

Пост 30-Окт-2011 09:24

[Q] 

aleksey99

--Волга-Волга-- Год выпуска: 1938.
Страна: .
Производство: "Мосфильм".
Жанр: Музыкальная комедия.
Продолжительность: 01:39:00
Субтитры: Отсутствуют.
Перевод: Оригинал(русский).-- Режиссер: Григорий Александров.-- В ролях: Игорь Ильинский, Любовь Орлова, Павел Оленев, Андрей Тутышкин, Сергей Антимонов, Владимир Володин, Мария Миронова, Всеволод Санаев, Эммануил Геллер, Никита Кондратьев, Иван Чувелев, Анатолий Шалаев, Алексей Долинин.-- Описание: Начальник управления мелкой кустарной промышленности Бывалов мечтает о службе в Москве. Он получает распоряжение подготовить к всесоюзному смотру участников художественной самодеятельности. Бывалов считает, что посылать в Москву некого, несмотря на то, что в городе есть два творческих коллектива. В конце концов каждая группа отправляется по Волге в столицу своим путем...
Одна из первых советских музыкальных комедий, которая веселила несколько поколений кино- и телезрителей. Сегодня она кажется немного наивной, но это не умаляет обаяния игры легендарных актеров. Персонажи "Волги-Волги" будут "возрождаться" в комедиях последующих лет, подобно Огурцову из "Карнавальной ночи"... Если вам вдруг захочется "рвать и метать", вспомните, откуда пришло это выражение, - и улыбнитесь!
-- -- Качество видео: DVDRip.
Формат: AVI.
Видео кодек: XviD.
Аудио кодек: AC3.
Видео: 688x512 (1.34:1), 25 fps, XviD build 50 ~1648 kbps avg, 0.19 bit/pixel
Аудио: 48 kHz, AC3 Dolby Digital, 3/2 (L,C,R,l,r) + LFE ch, ~448 kbps-
Формат : AVI
Формат/Информация : Audio Video Interleave
Размер файла : 1,46 Гбайт
Продолжительность : 1 ч. 39 м.
Общий поток : 2107 Кбит/сек
Режиссёр : Shel
Программа кодирования : VirtualDubModRus 1.5.10.2 (build 2542/release)
Библиотека кодирования : VirtualDubMod build 2542/release
Видео
Идентификатор : 0
Формат : MPEG-4 Visual
Профиль формата : Advanced [email protected]
Параметр BVOP формата : 2
Параметр QPel формата : Нет
Параметр GMC формата : Без точки перехода
Параметр матрицы формата : Выборочная
Идентификатор кодека : XVID
Идентификатор кодека/Подсказка : XviD
Продолжительность : 1 ч. 39 м.
Битрейт : 1649 Кбит/сек
Ширина : 688 пикс.
Высота : 512 пикс.
Соотношение сторон : 4:3
Частота кадров : 25,000 кадр/сек
Цветовое пространство : YUV
Подвыборка цветности : 4:2:0
Битовая глубина : 8 бит
Тип развёртки : Прогрессивная
Метод сжатия : С потерями
Бит/(Пиксели*Кадры) : 0.187
Размер потока : 1,14 Гбайт (78%)
Библиотека кодирования : XviD 1.2.1 (UTC 2008-12-04)
Аудио
Идентификатор : 1
Формат : AC-3
Формат/Информация : Audio Coding 3
Расширение режима : CM (complete main)
Идентификатор кодека : 2000
Продолжительность : 1 ч. 39 м.
Вид битрейта : Постоянный
Битрейт : 448 Кбит/сек
Каналы : 6 каналов
Расположение каналов : Front: L C R, Side: L R, LFE
Частота : 48,0 КГц
Битовая глубина : 16 бит
Метод сжатия : С потерями
Размер потока : 317 Мбайт (21%)
Выравнивание : Разделение по промежуткам
Продолжительность промежутка : 40 мс. (1,00 видеокадр)
Время предзагрузки промежутка : 500 ms
- --


Download / Скачать

Хотите скачать бесплатно? Зарегистрируйтесь на сайте (ссылка на регистрацию). Pirat.ca - самый быстрый торрент трекер в рунете!

Как скачивать  ·   Что такое торрент  ·   Рейтинг и ограничения



Последний раз редактировалось: aleksey99 (2011-11-08 13:11), всего редактировалось 1 раз

Пост 30-Окт-2011 12:14 (спустя 2 часа 50 минут)

Топик был перенесен из форума Наше Кино в форум Золотая коллекция

Чужая
 

Luzhok

Легенда

Пост 30-Окт-2011 14:11 (спустя 4 часа)

[Q] 

в цвете не видел
aleksey99,
спасибо
[Профиль]  [ЛС] 

aleksey99 ®

281955

Пост 30-Окт-2011 19:58 (спустя 5 часов)

[Q] 

Luzhok, На здоровье!

_________________

[Профиль]  [ЛС] 

leha1975

Гроза морей

3383

Пост 13-Ноя-2011 20:39 (спустя 14 дней)

[Q] 

aleksey99,
спасибо

_________________

[Профиль]  [ЛС] 

aleksey99 ®

281955

Пост 14-Ноя-2011 18:21 (спустя 21 час)

[Q] 

leha1975, Всегда пожалуйста az

_________________

[Профиль]  [ЛС] 

CHARLI2236

1089

Пост 13-Дек-2011 13:58 (спустя 28 дней)

[Q] 

спасибо

_________________
[Профиль]  [ЛС] 

RIIDDIK

Шкипер

84

Пост 11-Фев-2012 12:07 (спустя 1 месяц 28 дней)

[Q] 

[Профиль]  [ЛС] 

ksg111ban

Гроза морей

Пост 04-Мар-2012 17:55 (спустя 22 дня)

[Q] 


_________________
[Профиль]  [ЛС] 

abc7

Гроза морей

464

Пост 07-Мар-2012 06:34 (спустя 2 дня 12 часов)

[Q] 

Вспомнил... смотрел по первому каналу!!!! В то время было всего 2 канала......
[Профиль]  [ЛС] 

dchk1

Штурман

Пост 07-Мар-2012 15:56 (спустя 9 часов)

[Q] 

В цвете конечно интересно, но в черно-белом интереснее. Оригинал то был именно черно-белый. Спасибо.
[Профиль]  [ЛС] 

alex denver71

Флибустьер

Пост 13-Янв-2015 17:59 (спустя 2 года 10 месяцев)

[Q] 

Автору респект!!! Классика в цвете!!! ЗА
[Профиль]  [ЛС] 

R_O_Z_A

Морской Волк

Пост 26-Фев-2015 22:47 (спустя 1 месяц 13 дней)

[Q] 

Спасибо Лови бочку
[Профиль]  [ЛС] 
Показать сообщения:    
Ответить на тему

Текущее время: Сегодня 07:54

Часовой пояс: GMT + 4



Вы не можете начинать темы
Вы не можете отвечать на сообщения
Вы не можете редактировать свои сообщения
Вы не можете удалять свои сообщения
Вы не можете голосовать в опросах
Вы не можете прикреплять файлы к сообщениям
Вы не можете скачивать файлы

▼ Вниз