ML
     
  Уважаемый Гость!
Вы можете поддержать проект и зарегистрироваться у наших партнеров - онлайн-стратегия MyLands. При регистрации в игре Вы получите код, который сможете активировать после регистрации на pirat.ca и получить 1000 дублонов.

Ваш код:
8dcb839cf1b47e56d6dc42d17f26b3e4822e9aee
 
     

Я шагаю по Москве (Георгий Данелия) [1963 г., Киноповесть, Комедия, DVDRip]

Ответить на тему
 
Автор
Сообщение

Пост 30-Окт-2011 12:58

[Q] 

aleksey99

--Я шагаю по Москве-- Год выпуска: 1963.
Страна: .
Производство: "Мосфильм".
Жанр: Киноповесть, Комедия.
Продолжительность: 01:13:24
Субтитры: Отсутствуют.
Перевод: Оригинал(русский).-- Режиссер: Георгий Данелия.-- В ролях: Алексей Локтев, Никита Михалков, Галина Польских, Евгений Стеблов, Владимир Басов, Ролан Быков, Ирина Мирошниченко, Инна Чурикова, Мария Виноградова, Олег Видов, Лев Дуров, Ирина Скобцева, Любовь Соколова, Валентина Ананьина, Данута Столярская, Арина Алейникова, Геннадий Ялович.-- Описание: Проездом на родину погибшего товарища молодой монтажник из далекой тайги на один день заехал в Москву, чтобы встретиться с редактором журнала "Юность", в котором он напечатал свой первый рассказ…-- -- Качество видео: DVDRip.
Формат: AVI.
Видео кодек: DivX.
Аудио кодек: AC3.
Видео: 720x304 (2.37:1), 25 fps, DivX Codec 5.2.1 build 1328 ~2554 kbps avg, 0.47 bit/pixel
Аудио: 48 kHz, MPEG Layer 3, 2 ch, ~128.00 kbps avg-
Формат : AVI
Формат/Информация : Audio Video Interleave
Размер файла : 1,38 Гбайт
Продолжительность : 1 ч. 13 м.
Общий поток : 2693 Кбит/сек
Название фильма : Ya.Shagayu.Po.Moskve.(1963).rus.dvd-rip.from.DVD9.by.andynatali.via.torrent.e2k.by.soperedi
Часть/Положение : 1
Часть/Всего : 1
Режиссёр : Georgi Daneliya
Кодирование произвёл : soperedi / soperedi
Дата мастеринга : 11-07-2005
Программа кодирования : VirtualDubMod 1.5.10.1 Рус от Stvens Inc.™ www.stvens.amillo.net (build 2366/release)
Библиотека кодирования : VirtualDubMod build 2366/release
Формат оригинала : Digital Video
Примечание : soperedi
Видео
Идентификатор : 0
Формат : MPEG-4 Visual
Параметр BVOP формата : Нет
Параметр QPel формата : Нет
Параметр GMC формата : Без точки перехода
Параметр матрицы формата : Default (H.263)
Идентификатор кодека : DX50
Идентификатор кодека/Подсказка : DivX 5
Продолжительность : 1 ч. 13 м.
Битрейт : 2555 Кбит/сек
Ширина : 720 пикс.
Высота : 304 пикс.
Соотношение сторон : 2,35:1
Частота кадров : 25,000 кадр/сек
Цветовое пространство : YUV
Подвыборка цветности : 4:2:0
Битовая глубина : 8 бит
Тип развёртки : Прогрессивная
Метод сжатия : С потерями
Бит/(Пиксели*Кадры) : 0.467
Размер потока : 1,31 Гбайт (95%)
Библиотека кодирования : DivX 5.2.1 (WaffleDay) (UTC 2004-09-08)
Аудио
Идентификатор : 1
Формат : MPEG Audio
Версия формата : Version 1
Профиль формата : Layer 3
Режим : Joint stereo
Расширение режима : MS Stereo
Идентификатор кодека : 55
Идентификатор кодека/Подсказка : MP3
Продолжительность : 1 ч. 13 м.
Вид битрейта : Постоянный
Битрейт : 128 Кбит/сек
Каналы : 2 канала
Частота : 48,0 КГц
Метод сжатия : С потерями
Задержка видео : 1 с. 8 мс.
Размер потока : 67,2 Мбайт (5%)
Выравнивание : Разделение по промежуткам
Продолжительность промежутка : 40 мс. (1,00 видеокадр)
Время предзагрузки промежутка : 504 ms
Библиотека кодирования : LAME3.96.1
Язык : un / Russian
- --


Download / Скачать

Хотите скачать бесплатно? Зарегистрируйтесь на сайте (ссылка на регистрацию). Pirat.ca - самый быстрый торрент трекер в рунете!

Как скачивать  ·   Что такое торрент  ·   Рейтинг и ограничения



Последний раз редактировалось: aleksey99 (2011-11-08 13:09), всего редактировалось 1 раз

Luzhok

Легенда

Пост 30-Окт-2011 13:01 (спустя 3 минуты)

[Q] 

помогу с раздачей
aleksey99, спасибо
[Профиль]  [ЛС] 

Пост 30-Окт-2011 13:01 (спустя 10 секунд)

Топик был перенесен из форума Наше Кино в форум Золотая коллекция

Чужая
 

goxakrauter

4540

Пост 31-Окт-2011 00:57 (спустя 11 часов)

[Q] 

Спасибо. Классный фильм
[Профиль]  [ЛС] 

aleksey99 ®

282614

Пост 31-Окт-2011 07:07 (спустя 6 часов)

[Q] 

Luzhok, goxakrauter, На здоровье!

_________________

[Профиль]  [ЛС] 

xdgx

Флибустьер

Пост 10-Дек-2012 19:21 (спустя 1 год 1 месяц)

[Q] 

[Профиль]  [ЛС] 

Trianon777

Морской Волк

Пост 21-Июл-2014 11:56 (спустя 1 год 7 месяцев)

[Q] 

"А у меня сегодня день начался с того, что на аэродроме незнакомая девушка танцевала... И я у неё спросил: "А что, у Вас всё хорошо?", а она мне ответила: - ВСЁ ХОРОШО. А я: - Так не бывает!.. - Бывает!.."
Поразительно, фильму - более 50 лет, а он такой же молодой и пронизанный счастьем! Можно смотреть бесконечно - в нем столько душевности, доброты, трогательной иронии заложено и ещё неповторимое романтическое настроение 60-х гг. прошлого столетия. Увы о нем я слышал только по рассказам родителей...
Повторюсь, фильм можно смотреть бесконечно... И бесконечно учиться светлым чувствам. Такие фильмы не стареют! Вечная память Алексею Локтеву...
Спасибо за такую раздачу! Однозначно - в коллекцию!
[Профиль]  [ЛС] 

R_O_Z_A

Морской Волк

Пост 26-Фев-2015 23:13 (спустя 7 месяцев 5 дней)

[Q] 

фильм из детства Спасибо!!!
[Профиль]  [ЛС] 
Показать сообщения:    
Ответить на тему

Текущее время: Сегодня 04:13

Часовой пояс: GMT + 4



Вы не можете начинать темы
Вы не можете отвечать на сообщения
Вы не можете редактировать свои сообщения
Вы не можете удалять свои сообщения
Вы не можете голосовать в опросах
Вы не можете прикреплять файлы к сообщениям
Вы не можете скачивать файлы

▼ Вниз