ML
     
  Уважаемый Гость!
Вы можете поддержать проект и зарегистрироваться у наших партнеров - онлайн-стратегия MyLands. При регистрации в игре Вы получите код, который сможете активировать после регистрации на pirat.ca и получить 1000 дублонов.

Ваш код:
fe4e93b754a7c2b306fcfc8bc32532ea1cf59d3b
 
     

Верные Друзья (Михаил Калатозов) [1954 г., Лирическая комедия, DVDRip]

Ответить на тему
 
Автор
Сообщение

Пост 30-Окт-2011 13:35

[Q] 

aleksey99

--Верные Друзья-- Год выпуска: 1954.
Страна: .
Производство: "Мосфильм".
Жанр: Лирическая комедия.
Продолжительность: 01:36:23
Субтитры: Отсутствуют.
Перевод: Оригинал(русский).-- Режиссер: Михаил Калатозов.-- В ролях: Василий Меркурьев, Борис Чирков, Александр Борисов, Алексей Грибов, Лилия Гриценко, Людмила Шагалова, Юрий Саранцев, Алексей Покровский, Людмила Геника, Николай Сморчков, Георгий Георгиу, Михаил Пуговкин, Всеволод Санаев, Владимир Андреев.-- Описание: На реке Яузе, за московской заставой Лефортово, жили три закадычных друга. Они любили кататься на лодке и дали друг другу клятву поплыть вместе по большой реке, когда вырастут большими. Прошли годы, и они выросли. Один стал профессором медицины, второй - профессором животноводства, а третий, склонный к зазнайству и имевший в детстве кличку Индюк, - академиком архитектуры. И друзья сдержали клятву - они отправились на плоту по Волге. Впереди их ждали забавные приключения.-- -- Качество видео: DVDRip.
Формат: AVI.
Видео кодек: XviD.
Аудио кодек: MPEG Audio.
Видео: 720x524 (1.37:1), 25 fps, XviD build 50 ~1830 kbps avg, 0.19 bit/pixel
Аудио: 48 kHz, MPEG Layer 3, 2 ch, ~192.00 kbps avg-
Формат : AVI
Формат/Информация : Audio Video Interleave
Размер файла : 1,37 Гбайт
Продолжительность : 1 ч. 36 м.
Общий поток : 2036 Кбит/сек
Название фильма : Vernye_druzya.Title2.DVDRip
Программа кодирования : Lavf52.33.0
Формат оригинала/Имя : Vernye_druzya
Видео
Идентификатор : 0
Формат : MPEG-4 Visual
Профиль формата : [email protected]
Параметр BVOP формата : Нет
Параметр QPel формата : Нет
Параметр GMC формата : Без точки перехода
Параметр матрицы формата : Default (H.263)
Идентификатор кодека : XVID
Идентификатор кодека/Подсказка : XviD
Продолжительность : 1 ч. 36 м.
Битрейт : 1832 Кбит/сек
Ширина : 720 пикс.
Высота : 524 пикс.
Соотношение сторон : 1,374
Частота кадров : 25,000 кадр/сек
Цветовое пространство : YUV
Подвыборка цветности : 4:2:0
Битовая глубина : 8 бит
Тип развёртки : Прогрессивная
Метод сжатия : С потерями
Бит/(Пиксели*Кадры) : 0.194
Размер потока : 1,23 Гбайт (90%)
Библиотека кодирования : XviD 1.2.1 (UTC 2008-12-04)
Аудио
Идентификатор : 1
Формат : MPEG Audio
Версия формата : Version 1
Профиль формата : Layer 3
Режим : Joint stereo
Расширение режима : MS Stereo
Идентификатор кодека : 55
Идентификатор кодека/Подсказка : MP3
Продолжительность : 1 ч. 36 м.
Вид битрейта : Постоянный
Битрейт : 192 Кбит/сек
Каналы : 2 канала
Частота : 48,0 КГц
Метод сжатия : С потерями
Размер потока : 132 Мбайт (9%)
Выравнивание : Соединение по промежуткам
Продолжительность промежутка : 24 мс. (0,60 видеокадр)
Библиотека кодирования : LAME3.98.2
- --


Download / Скачать

Хотите скачать бесплатно? Зарегистрируйтесь на сайте (ссылка на регистрацию). Pirat.ca - самый быстрый торрент трекер в рунете!

Как скачивать  ·   Что такое торрент  ·   Рейтинг и ограничения



Последний раз редактировалось: aleksey99 (2011-11-08 13:06), всего редактировалось 1 раз

Пост 30-Окт-2011 13:44 (спустя 9 минут)

Топик был перенесен из форума Наше Кино в форум Золотая коллекция

Чужая
 

dimkoba

35102

Пост 18-Янв-2012 23:16 (спустя 2 месяца 19 дней)

[Q] 

хороший добрый фильм

_________________
[Профиль]  [ЛС] 

RIIDDIK

Шкипер

84

Пост 11-Фев-2012 11:58 (спустя 23 дня)

[Q] 

[Профиль]  [ЛС] 

fhnvfy

Морской Волк

Пост 29-Июл-2013 21:32 (спустя 1 год 5 месяцев)

[Q] 

Лови бочку
[Профиль]  [ЛС] 

Faustello

Шкипер

Пост 03-Янв-2014 14:11 (спустя 5 месяцев 4 дня)

[Q] 

Спасибо! люблю старые наши фильмы!
[Профиль]  [ЛС] 
Показать сообщения:    
Ответить на тему

Текущее время: Сегодня 14:31

Часовой пояс: GMT + 4



Вы не можете начинать темы
Вы не можете отвечать на сообщения
Вы не можете редактировать свои сообщения
Вы не можете удалять свои сообщения
Вы не можете голосовать в опросах
Вы не можете прикреплять файлы к сообщениям
Вы не можете скачивать файлы

▼ Вниз