ML
     
  Уважаемый Гость!
Вы можете поддержать проект и зарегистрироваться у наших партнеров - онлайн-стратегия MyLands. При регистрации в игре Вы получите код, который сможете активировать после регистрации на pirat.ca и получить 1000 дублонов.

Ваш код:
db0e0ad91548759ffeb9bb88bed405e1a4b3c165
 
     

Двенадцать стульев (Марк Захаров) [1976 г., комедия, детектив, приключения, DVDRip]

Ответить на тему
 
Автор
Сообщение

Пост 30-Окт-2011 19:43

[Q] 

kufre

Корсар

Двенадцать стульев
Год выпуска: 1976
Жанр: комедия, детектив, приключения
Продолжительность: 04:50:00
Режиссер: Марк Захаров
В ролях: Андрей Миронов,Анатолий Папанов,Ролан Быков,Георгий Вицин,Олег Табаков,Татьяна Пельтцер,Николай Скоробогатов,Нелли Гошева,Николай Караченцов,Любовь Полищук
Описание: Ироничное и смешное представление, в котором парочка авантюристов охотится за стульями работы мастера Гамбса.
Фильм полностью снят в павильоне, хотя в романе множество эпизодов происходит на открытом пространстве.
В обоих советских фильмах «12 стульев» сыграли девять актёров:
1) Савелий Крамаров: в этом фильме он сыграл слесаря Полесова, а в фильме 1971 года — одноглазого шахматиста.
2) Георгий Михайлович Вицин: Безенчук — монтёр Мечников.
3) Эдуард Александрович Бредун: родственник Альхена — Паша Эмильевич.
4) Юрий Николаевич Медведев: председатель тиражной комиссии — театрал.
5) Павел Винник: официант в обоих фильмах.
6) Григорий Шпигель: редактор газеты — Альхен.
7) Анатолий Калабулин: шахматист — аукционщик Василий.
8) Анатолий Обухов: Кирилл Яковлевич — шахматист.
9) Вячеслав Войнаровский: Олег Яковлевич — Никеша
Леонид Гайдай неодобрительно отзывался об этом фильме, называя его «уголовным преступлением» и противопоставляя ему свой фильм, снятый пятью годами ранее.
В планах режиссёра фильма Марка Захарова изначально не было песни «Белеет мой парус такой одинокий». Её предложил автор текстов песен Юлий Ким. И она неожиданно стала сквозной темой фильма.
Автором текстов песен, Юлием Кимом для фильма было написано пять песен Остапа. Финальная должна была звучать перед появлением последнего стула (эпизод, когда Ипполит Матвеевич расправлялся с помощью бритвы со своим концессионером). За кадром звучало бы грустное танго. Но этот текст не утвердил режиссёр Марк Захаров.
По опросам читателей газеты «Аргументы и факты» лучше всех роль Остапа Бендера сыграл Андрей Миронов.
Исполнительница роли Эллочки-людоедки Елена Шанина, перед пробами на роль, умудрилась за 65 дней похудеть на 41 кг, а затем, по просьбе Марка Захарова, за три недели до съемок сбросила еще 10 кг. И к моменту съемок она весила всего 50 кг.
Одной из наиболее ранних экранизаций романа Ильфа и Петрова является кубинский фильм 1962 года «Las doce sillas» («12 стульев»), снятый режиссёром Томасом Гутьерресом Алеа (Tomás Gutiérrez Alea).
Полное имя : F:\ШАРА F\ФИЛЬМЫ\НАШЕ\12 стульев (1977, Миронов А., Папанов А.) DVDRip\12.stul'ev.XviD.CD1.avi
Формат : AVI
Формат/Информация : Audio Video Interleave
Размер файла : 700 Мбайт
Продолжительность : 1 ч. 5 м.
Общий поток : 1497 Кбит/сек
Программа кодирования : VirtualDubMod 1.5.4.1 (build 2178/release)
Правообладатель : DVDRip_by_berger007
Видео
Идентификатор : 0
Формат : MPEG-4 Visual
Профиль формата : Advanced [email protected]
Параметр BVOP формата : 1
Параметр QPel формата : Нет
Параметр GMC формата : Без точки перехода
Параметр матрицы формата : Выборочная
Идентификатор кодека : XVID
Идентификатор кодека/Подсказка : XviD
Продолжительность : 1 ч. 5 м.
Битрейт : 1297 Кбит/сек
Ширина : 640 пикс.
Высота : 480 пикс.
Соотношение сторон : 4:3
Частота кадров : 25,000 кадр/сек
Цветовое пространство : YUV
Подвыборка цветности : 4:2:0
Битовая глубина : 8 бит
Тип развёртки : Прогрессивная
Метод сжатия : С потерями
Бит/(Пиксели*Кадры) : 0.169
Размер потока : 606 Мбайт (87%)
Библиотека кодирования : XviD 1.2.0.dev45 (UTC 2006-07-10)
Аудио
Идентификатор : 1
Формат : MPEG Audio
Версия формата : Version 1
Профиль формата : Layer 3
Режим : Joint stereo
Расширение режима : MS Stereo
Идентификатор кодека : 55
Идентификатор кодека/Подсказка : MP3
Продолжительность : 1 ч. 5 м.
Вид битрейта : Постоянный
Битрейт : 192 Кбит/сек
Каналы : 2 канала
Частота : 48,0 КГц
Метод сжатия : С потерями
Задержка видео : 216 мс.
Размер потока : 89,8 Мбайт (13%)
Выравнивание : Соединение по промежуткам
Продолжительность промежутка : 80 мс. (2,00 видеокадра)
Время предзагрузки промежутка : 504 ms
Библиотека кодирования : LAME3.97b
Настройки программы : -m j -V 4 -q 2 -lowpass 18.6 -b 192
Общее
Полное имя : F:\ШАРА F\ФИЛЬМЫ\НАШЕ\12 стульев (1977, Миронов А., Папанов А.) DVDRip\12.stul'ev.XviD.CD2.avi
Формат : AVI
Формат/Информация : Audio Video Interleave
Размер файла : 700 Мбайт
Продолжительность : 1 ч. 5 м.
Общий поток : 1493 Кбит/сек
Программа кодирования : VirtualDubMod 1.5.4.1 (build 2178/release)
Правообладатель : DVDRip_by_berger007
Видео
Идентификатор : 0
Формат : MPEG-4 Visual
Профиль формата : Advanced [email protected]
Параметр BVOP формата : 1
Параметр QPel формата : Нет
Параметр GMC формата : Без точки перехода
Параметр матрицы формата : Выборочная
Идентификатор кодека : XVID
Идентификатор кодека/Подсказка : XviD
Продолжительность : 1 ч. 5 м.
Битрейт : 1294 Кбит/сек
Ширина : 640 пикс.
Высота : 480 пикс.
Соотношение сторон : 4:3
Частота кадров : 25,000 кадр/сек
Цветовое пространство : YUV
Подвыборка цветности : 4:2:0
Битовая глубина : 8 бит
Тип развёртки : Прогрессивная
Метод сжатия : С потерями
Бит/(Пиксели*Кадры) : 0.168
Размер потока : 606 Мбайт (87%)
Библиотека кодирования : XviD 1.2.0.dev45 (UTC 2006-07-10)
Аудио
Идентификатор : 1
Формат : MPEG Audio
Версия формата : Version 1
Профиль формата : Layer 3
Режим : Joint stereo
Расширение режима : MS Stereo
Идентификатор кодека : 55
Идентификатор кодека/Подсказка : MP3
Продолжительность : 1 ч. 5 м.
Вид битрейта : Постоянный
Битрейт : 192 Кбит/сек
Каналы : 2 канала
Частота : 48,0 КГц
Метод сжатия : С потерями
Задержка видео : 192 мс.
Размер потока : 89,9 Мбайт (13%)
Выравнивание : Соединение по промежуткам
Продолжительность промежутка : 80 мс. (2,00 видеокадра)
Время предзагрузки промежутка : 504 ms
Библиотека кодирования : LAME3.97b
Настройки программы : -m j -V 4 -q 2 -lowpass 18.6 -b 192
Общее
Полное имя : F:\ШАРА F\ФИЛЬМЫ\НАШЕ\12 стульев (1977, Миронов А., Папанов А.) DVDRip\12.stul'ev.XviD.CD3.avi
Формат : AVI
Формат/Информация : Audio Video Interleave
Размер файла : 700 Мбайт
Продолжительность : 1 ч. 19 м.
Общий поток : 1224 Кбит/сек
Программа кодирования : VirtualDubMod 1.5.4.1 (build 2178/release)
Правообладатель : DVDRip_by_berger007
Видео
Идентификатор : 0
Формат : MPEG-4 Visual
Профиль формата : Advanced [email protected]
Параметр BVOP формата : 1
Параметр QPel формата : Нет
Параметр GMC формата : Без точки перехода
Параметр матрицы формата : Выборочная
Идентификатор кодека : XVID
Идентификатор кодека/Подсказка : XviD
Продолжительность : 1 ч. 19 м.
Битрейт : 1025 Кбит/сек
Ширина : 640 пикс.
Высота : 480 пикс.
Соотношение сторон : 4:3
Частота кадров : 25,000 кадр/сек
Цветовое пространство : YUV
Подвыборка цветности : 4:2:0
Битовая глубина : 8 бит
Тип развёртки : Прогрессивная
Метод сжатия : С потерями
Бит/(Пиксели*Кадры) : 0.133
Размер потока : 586 Мбайт (84%)
Библиотека кодирования : XviD 1.2.0.dev45 (UTC 2006-07-10)
Аудио
Идентификатор : 1
Формат : MPEG Audio
Версия формата : Version 1
Профиль формата : Layer 3
Режим : Joint stereo
Расширение режима : MS Stereo
Идентификатор кодека : 55
Идентификатор кодека/Подсказка : MP3
Продолжительность : 1 ч. 19 м.
Вид битрейта : Постоянный
Битрейт : 192 Кбит/сек
Каналы : 2 канала
Частота : 48,0 КГц
Метод сжатия : С потерями
Размер потока : 110 Мбайт (16%)
Выравнивание : Соединение по промежуткам
Продолжительность промежутка : 80 мс. (2,00 видеокадра)
Время предзагрузки промежутка : 504 ms
Библиотека кодирования : LAME3.97 (beta)
Общее
Полное имя : F:\ШАРА F\ФИЛЬМЫ\НАШЕ\12 стульев (1977, Миронов А., Папанов А.) DVDRip\12.stul'ev.XviD.CD4.avi
Формат : AVI
Формат/Информация : Audio Video Interleave
Размер файла : 700 Мбайт
Продолжительность : 1 ч. 17 м.
Общий поток : 1257 Кбит/сек
Программа кодирования : VirtualDubMod 1.5.4.1 (build 2178/release)
Правообладатель : DVDRip_by_berger007
Видео
Идентификатор : 0
Формат : MPEG-4 Visual
Профиль формата : Advanced [email protected]
Параметр BVOP формата : 1
Параметр QPel формата : Нет
Параметр GMC формата : Без точки перехода
Параметр матрицы формата : Выборочная
Идентификатор кодека : XVID
Идентификатор кодека/Подсказка : XviD
Продолжительность : 1 ч. 17 м.
Битрейт : 1058 Кбит/сек
Ширина : 640 пикс.
Высота : 480 пикс.
Соотношение сторон : 4:3
Частота кадров : 25,000 кадр/сек
Цветовое пространство : YUV
Подвыборка цветности : 4:2:0
Битовая глубина : 8 бит
Тип развёртки : Прогрессивная
Метод сжатия : С потерями
Бит/(Пиксели*Кадры) : 0.138
Размер потока : 589 Мбайт (84%)
Библиотека кодирования : XviD 1.2.0.dev45 (UTC 2006-07-10)
Аудио
Идентификатор : 1
Формат : MPEG Audio
Версия формата : Version 1
Профиль формата : Layer 3
Режим : Joint stereo
Расширение режима : MS Stereo
Идентификатор кодека : 55
Идентификатор кодека/Подсказка : MP3
Продолжительность : 1 ч. 17 м.
Вид битрейта : Постоянный
Битрейт : 192 Кбит/сек
Каналы : 2 канала
Частота : 48,0 КГц
Метод сжатия : С потерями
Задержка видео : 192 мс.
Размер потока : 107 Мбайт (15%)
Выравнивание : Соединение по промежуткам
Продолжительность промежутка : 80 мс. (2,00 видеокадра)
Время предзагрузки промежутка : 504 ms
Библиотека кодирования : LAME3.97b
Настройки программы : -m j -V 4 -q 2 -lowpass 18.6 -b 192
Качество: DVDRip
Формат: AVI
Видео кодек: XviD
Аудио кодек: MP3
Видео: 640x480,25 fps,XviD build 45,1297 kbps avg,0.17 bit/pixel
Аудио: 48 kHz,MPEG Layer 3,2 ch,192.00 kbps avg









Download / Скачать

Хотите скачать бесплатно? Зарегистрируйтесь на сайте (ссылка на регистрацию). Pirat.ca - самый быстрый торрент трекер в рунете!

Как скачивать  ·   Что такое торрент  ·   Рейтинг и ограничения



Последний раз редактировалось: kufre (2011-11-28 11:27), всего редактировалось 5 раз(а)

Пост 30-Окт-2011 23:45 (спустя 4 часа)

Топик был перенесен из форума Наше Кино в форум Золотая коллекция

goxakrauter
 

Creed72

9783

Пост 01-Ноя-2011 19:44 (спустя 2 дня)

[Q] 

Раздача поддерживается группой Seed Aid.

_________________
Я мзду не беру. Мне за Державу обидно.(с)
[Профиль]  [ЛС] 

megamastor

2827

Пост 19-Фев-2012 13:14 (спустя 3 месяца 17 дней)

[Q] 

[Профиль]  [ЛС] 

UncleFather

Легенда

Пост 24-Мар-2013 20:15 (спустя 1 год 1 месяц)

[Q] 


_________________
Одни боялись Пью, другие - Билли Бонса, а меня... меня боялся сам Флинт
[Профиль]  [ЛС] 

BiOHAZARD

Корсар

503

Пост 09-Апр-2013 12:17 (спустя 15 дней)

[Q] 

Спасибо!!! Отличный фильм!
[Профиль]  [ЛС] 

enson3

Шкипер

Пост 12-Апр-2013 17:16 (спустя 3 дня)

[Q] 

Спасибо!!
[Профиль]  [ЛС] 

UncleFather

Легенда

Пост 17-Янв-2014 14:16 (спустя 9 месяцев 4 дня)

[Q] 

Классика.... имхо, это лучшая экранизация бессмертного произведения!

_________________
Одни боялись Пью, другие - Билли Бонса, а меня... меня боялся сам Флинт
[Профиль]  [ЛС] 

alex denver71

Флибустьер

Пост 09-Сен-2014 19:05 (спустя 7 месяцев 23 дня)

[Q] 

Автору респект!!! Золотая коллекция нашего синематографа! Всем качать! cy
[Профиль]  [ЛС] 
Показать сообщения:    
Ответить на тему

Текущее время: Сегодня 08:08

Часовой пояс: GMT + 4



Вы не можете начинать темы
Вы не можете отвечать на сообщения
Вы не можете редактировать свои сообщения
Вы не можете удалять свои сообщения
Вы не можете голосовать в опросах
Вы не можете прикреплять файлы к сообщениям
Вы не можете скачивать файлы

▼ Вниз