ML
     
  Уважаемый Гость!
Вы можете поддержать проект и зарегистрироваться у наших партнеров - онлайн-стратегия MyLands. При регистрации в игре Вы получите код, который сможете активировать после регистрации на pirat.ca и получить 1000 дублонов.

Ваш код:
11f49771fdf057c9d51610e4a0925c3b46ddb655
 
     

За спичками (Леонид Гайдай, Ристо Орко) [1979 г., Комедия, DVDRip]

Ответить на тему
 
Автор
Сообщение

Пост 31-Окт-2011 02:09

[Q] 

kufre

Корсар

За спичками
Год выпуска: 1979
Жанр: Комедия
Продолжительность: 01:33:51
Режиссер: Леонид Гайдай, Ристо Орко
В ролях: Евгений Леонов, Вячеслав Невинный, Рита Полстер, Ритва Валкама /Ritva Valkama/, Георгий Вицин, Галина Польских, Лео Ластумяки, Пекка Аутиовуори, Сергей Филиппов, Нина Гребешкова, Вера Ивлева, Олави Ахонен, Михаил Пуговкин, Кауко Хеловирта, Леонид Куравлев
Описание: В доме Ихалайнена кончились спички и невозможно развести огонь для приготовления так любимого финнами кофе. Потом случайная встреча с приятелем, и как следствие того, нарушение данного двадцать лет назад зарока не брать в рот спиртного. Затем неожиданное свидание в городе Юсси Ватанена со своей старой подружкой…
Полное имя : H:\ШАРА\ВИДЕО\ФИЛЬМЫ\Н А Ш Е\За спичками.1980.XviD.DVDRip.avi
Формат : AVI
Формат/Информация : Audio Video Interleave
Размер файла : 1,37 Гбайт
Продолжительность : 1 ч. 33 м.
Общий поток : 2083 Кбит/сек
Программа кодирования : VirtualDubMod 1.5.4.1 (build 2178/release)
Библиотека кодирования : VirtualDubMod build 2178/release
Видео
Идентификатор : 0
Формат : MPEG-4 Visual
Профиль формата : Advanced [email protected]
Параметр BVOP формата : 1
Параметр QPel формата : Нет
Параметр GMC формата : Без точки перехода
Параметр матрицы формата : Выборочная
Идентификатор кодека : XVID
Идентификатор кодека/Подсказка : XviD
Продолжительность : 1 ч. 33 м.
Битрейт : 1628 Кбит/сек
Ширина : 720 пикс.
Высота : 544 пикс.
Соотношение сторон : 4:3
Частота кадров : 25,000 кадр/сек
Цветовое пространство : YUV
Подвыборка цветности : 4:2:0
Битовая глубина : 8 бит
Тип развёртки : Прогрессивная
Метод сжатия : С потерями
Бит/(Пиксели*Кадры) : 0.166
Размер потока : 1,07 Гбайт (78%)
Библиотека кодирования : XviD 1.2.0.dev47 (UTC 2006-11-01)
Аудио
Идентификатор : 1
Формат : AC-3
Формат/Информация : Audio Coding 3
Расширение режима : CM (complete main)
Идентификатор кодека : 2000
Продолжительность : 1 ч. 33 м.
Вид битрейта : Постоянный
Битрейт : 448 Кбит/сек
Каналы : 6 каналов
Расположение каналов : Front: L C R, Side: L R, LFE
Частота : 48,0 КГц
Битовая глубина : 16 бит
Метод сжатия : С потерями
Размер потока : 301 Мбайт (22%)
Выравнивание : Разделение по промежуткам
Продолжительность промежутка : 96 мс. (2,40 видеокадра)
Время предзагрузки промежутка : 96 ms
Язык : Russian
Качество: DVDRip
Формат: AVI
Видео кодек: XviD
Аудио кодек: AC3
Видео: 720x544 (1.32:1), 25 fps, XviD build 47 ~1628 kbps avg, 0.17 bit/pixel
Аудио: 48 kHz, AC3 Dolby Digital, 3/2 (L,C,R,l,r) + LFE ch, ~448 kbps



Download / Скачать

Хотите скачать бесплатно? Зарегистрируйтесь на сайте (ссылка на регистрацию). Pirat.ca - самый быстрый торрент трекер в рунете!

Как скачивать  ·   Что такое торрент  ·   Рейтинг и ограничения



Последний раз редактировалось: kufre (2011-11-16 21:12), всего редактировалось 1 раз

Пост 31-Окт-2011 16:01 (спустя 13 часов)

Топик был перенесен из форума Наше Кино в форум Золотая коллекция

goxakrauter
 

Creed72

9781

Пост 01-Ноя-2011 19:40 (спустя 1 день 17 часов)

[Q] 

Раздача поддерживается группой Seed Aid.

_________________
Я мзду не беру. Мне за Державу обидно.(с)
[Профиль]  [ЛС] 

dimkoba

35104

Пост 18-Янв-2012 23:15 (спустя 2 месяца 17 дней)

[Q] 

один из самых смешных советских фильмов

_________________
[Профиль]  [ЛС] 

RIIDDIK

Шкипер

84

Пост 10-Фев-2012 19:03 (спустя 22 дня)

[Q] 

[Профиль]  [ЛС] 

ksg111ban

Гроза морей

Пост 04-Мар-2012 18:05 (спустя 22 дня)

[Q] 

один из самых смешных советских фильмов
Какой подбор актеров, потрясающая игра!!

_________________
[Профиль]  [ЛС] 

khvorovs

Шкипер

13

Пост 16-Май-2012 22:19 (спустя 2 месяца 12 дней)

[Q] 

[Профиль]  [ЛС] 

CHARLI2236

1097

Пост 31-Май-2012 15:24 (спустя 14 дней)

[Q] 

благодарю

_________________
[Профиль]  [ЛС] 

kinstintin

Гроза морей

Пост 30-Янв-2013 20:53 (спустя 7 месяцев 30 дней)

[Q] 

[Профиль]  [ЛС] 

UncleFather

Легенда

Пост 24-Мар-2013 20:16 (спустя 1 месяц 24 дня)

[Q] 


_________________
Одни боялись Пью, другие - Билли Бонса, а меня... меня боялся сам Флинт
[Профиль]  [ЛС] 

alex denver71

Флибустьер

Пост 02-Янв-2015 09:32 (спустя 1 год 9 месяцев)

[Q] 

Автору респект!!! Согласен игра актеров на высоте!!!Фильм достоин быть в коллекции-шедевр!!! 10 из 10!!! bf ВСЕХ С НОВЫМ ГОДОМ!!!!!!!!!!!!!!!!!!!!!!!!
[Профиль]  [ЛС] 
Показать сообщения:    
Ответить на тему

Текущее время: Сегодня 03:11

Часовой пояс: GMT + 4



Вы не можете начинать темы
Вы не можете отвечать на сообщения
Вы не можете редактировать свои сообщения
Вы не можете удалять свои сообщения
Вы не можете голосовать в опросах
Вы не можете прикреплять файлы к сообщениям
Вы не можете скачивать файлы

▼ Вниз