ML
     
  Уважаемый Гость!
Вы можете поддержать проект и зарегистрироваться у наших партнеров - онлайн-стратегия MyLands. При регистрации в игре Вы получите код, который сможете активировать после регистрации на pirat.ca и получить 1000 дублонов.

Ваш код:
e6008d9811a0b6a1393c3dc51ecd7bc35637bc21
 
     

В бой идут одни "старики" (Реставрация в цвете) (Леонид Быков) [1973 г., Драма, комедия, военный, BDRip]

Ответить на тему
 
Автор
Сообщение

Пост 31-Окт-2011 07:25

[Q] 

aleksey99

--В бой идут одни "старики"-- Год выпуска: 1973.
Страна: .
Производство: "Киностудия имени А.Довженко".
Жанр: Драма, комедия, военный.
Продолжительность: 01:31:52
Субтитры: Отсутствуют.
Перевод: Оригинал(русский).-- Режиссер: Леонид Быков.-- В ролях: Леонид Быков, Сергей Подгорный, Сергей Иванов, Рустам Сагдуллаев, Евгения Симонова, Ольга Матешко, Владимир Талашко, Алексей Смирнов, Виктор Мирошниченко, Григорий Гладий.-- Описание: Эта эскадрилья стала «поющей» — так капитан Титаренко подбирал себе новичков. Его «старикам» было не больше двадцати, но «желторотиков», пополнение из летных училищ ускоренного выпуска, в бой все равно, по возможности, не пускали. Им еще многое предстояло испытать — и жар боев, и радость первой победы над врагом, и величие братства, скрепленного кровью, и первую любовь, и горечь утраты… И настанет день, когда по команде «в бой идут одни старики» бывшие желторотики бросятся к своим самолетам...-- -- Качество видео: BDRip.
Формат: AVI.
Видео кодек: XviD.
Аудио кодек: AC3.
Видео: 704x512 (1.38:1), 24.000 fps, XviD build 50 ~1810 kbps avg, 0.21 bit/pixel
Аудио: 48 kHz, AC3 Dolby Digital, 3/2 (L,C,R,l,r) + LFE ch, ~448.00 kbps avg-
Формат : AVI
Формат/Информация : Audio Video Interleave
Размер файла : 1,46 Гбайт
Продолжительность : 1 ч. 31 м.
Общий поток : 2268 Кбит/сек
Название фильма : V_Boy_Idut_odni_Stariki_1973_BDRip_Menen
Режиссёр : Menen
Программа кодирования : VirtualDubMod 1.5.10.2 (build 2540/release)
Видео
Идентификатор : 0
Формат : MPEG-4 Visual
Профиль формата : Advanced [email protected]
Параметр BVOP формата : 1
Параметр QPel формата : Нет
Параметр GMC формата : Без точки перехода
Параметр матрицы формата : Выборочная
Идентификатор кодека : XVID
Идентификатор кодека/Подсказка : XviD
Продолжительность : 1 ч. 31 м.
Битрейт : 1810 Кбит/сек
Ширина : 704 пикс.
Высота : 512 пикс.
Соотношение сторон : 1,375
Частота кадров : 24,000 кадр/сек
Цветовое пространство : YUV
Подвыборка цветности : 4:2:0
Битовая глубина : 8 бит
Тип развёртки : Прогрессивная
Метод сжатия : С потерями
Бит/(Пиксели*Кадры) : 0.209
Размер потока : 1,16 Гбайт (80%)
Библиотека кодирования : XviD 1.2.1 (UTC 2008-12-04)
Аудио
Идентификатор : 1
Формат : AC-3
Формат/Информация : Audio Coding 3
Расширение режима : CM (complete main)
Идентификатор кодека : 2000
Продолжительность : 1 ч. 31 м.
Вид битрейта : Постоянный
Битрейт : 448 Кбит/сек
Каналы : 6 каналов
Расположение каналов : Front: L C R, Side: L R, LFE
Частота : 48,0 КГц
Битовая глубина : 16 бит
Метод сжатия : С потерями
Размер потока : 294 Мбайт (20%)
Выравнивание : Разделение по промежуткам
Продолжительность промежутка : 42 мс. (1,00 видеокадр)
Время предзагрузки промежутка : 500 ms
- --


Download / Скачать

Хотите скачать бесплатно? Зарегистрируйтесь на сайте (ссылка на регистрацию). Pirat.ca - самый быстрый торрент трекер в рунете!

Как скачивать  ·   Что такое торрент  ·   Рейтинг и ограничения



Последний раз редактировалось: aleksey99 (2011-11-14 18:18), всего редактировалось 2 раз(а)

Пост 31-Окт-2011 08:58 (спустя 1 час 33 минуты)

Топик был перенесен из форума Наше Кино в форум Золотая коллекция

Чужая
 

CAMOTJIOP

Лоцман

Пост 13-Ноя-2011 08:04 (спустя 13 дней)

[Q] 

Поправьте, пожалуйста, производство не "Мосфильм", а киностудия имени А.Довженко
[Профиль]  [ЛС] 

aleksey99 ®

282445

Пост 14-Ноя-2011 18:20 (спустя 1 день 10 часов)

[Q] 

CAMOTJIOP, Поправил. Спасибо!

_________________

[Профиль]  [ЛС] 

tommek

Морской Волк

231

Пост 18-Янв-2012 20:26 (спустя 2 месяца 4 дня)

[Q] 

помню фильм с детства, аж ностальгия!

_________________
[Профиль]  [ЛС] 

dimkoba

35104

Пост 18-Янв-2012 23:04 (спустя 2 часа 38 минут)

[Q] 

tommek, да уж еще какая

_________________
[Профиль]  [ЛС] 

Zha-pol

Легенда

Пост 19-Янв-2012 20:03 (спустя 20 часов)

[Q] 

В цвете ещё интереснее)

_________________
[Профиль]  [ЛС] 

RIIDDIK

Шкипер

84

Пост 10-Фев-2012 19:02 (спустя 21 день)

[Q] 

[Профиль]  [ЛС] 

ksg111ban

Гроза морей

Пост 04-Мар-2012 17:55 (спустя 22 дня)

[Q] 

Да!!!Делали фильмы в своё время...

_________________
[Профиль]  [ЛС] 

Filimonia

Корсар

Пост 12-Фев-2013 11:41 (спустя 11 месяцев 7 дней)

[Q] 

[Профиль]  [ЛС] 

UncleFather

Легенда

Пост 24-Мар-2013 20:14 (спустя 1 месяц 12 дней)

[Q] 


_________________
Одни боялись Пью, другие - Билли Бонса, а меня... меня боялся сам Флинт
[Профиль]  [ЛС] 

FuckOOF

Корсар

Пост 08-Май-2016 12:09 (спустя 3 года 1 месяц)

[Q] 

Раздача будет или как?

_________________
[url] [/url]
[Профиль]  [ЛС] 
Показать сообщения:    
Ответить на тему

Текущее время: Сегодня 02:03

Часовой пояс: GMT + 4



Вы не можете начинать темы
Вы не можете отвечать на сообщения
Вы не можете редактировать свои сообщения
Вы не можете удалять свои сообщения
Вы не можете голосовать в опросах
Вы не можете прикреплять файлы к сообщениям
Вы не можете скачивать файлы

▼ Вниз