ML
     
  Уважаемый Гость!
Вы можете поддержать проект и зарегистрироваться у наших партнеров - онлайн-стратегия MyLands. При регистрации в игре Вы получите код, который сможете активировать после регистрации на pirat.ca и получить 1000 дублонов.

Ваш код:
a978488e62322cd72e113ab723b8a7fdc10eb9b9
 
     

Тридцать три (Георгий Данелия) [1965 г., комедия, DVDRip]

Ответить на тему
 
Автор
Сообщение

Пост 31-Окт-2011 20:03

[Q] 

kufre

Корсар

Тридцать три
Год выпуска: 1965
Жанр: комедия
Продолжительность: 01:12:37
Режиссер: Георгий Данелия
В ролях: Евгений Леонов, Вячеслав Невинный, Инна Чурикова, Светлана Светличная, Нонна Мордюкова, Савелий Крамаров, Владимир Басов
Описание: У всех обычных людей — 32 зуба. У героя фильма технолога Травкина неожиданно обнаруживается лишний, 33-й зуб. Это обстоятельство и послужило причиной цепочки невероятных и комичных ситуаций…
Полное имя : F:\ШАРА F\ФИЛЬМЫ\НАШЕ\ТРИДЦАТЬ ТРИ (1965) (комедия) (DVDRip) (реж.Георгий Данелия, Евгений Леонов, Нонна Мордюкова).avi
Формат : AVI
Формат/Информация : Audio Video Interleave
Размер файла : 1,14 Гбайт
Продолжительность : 1 ч. 12 м.
Общий поток : 2241 Кбит/сек
Библиотека кодирования : VirtualDub build 28225/release
Видео
Идентификатор : 0
Формат : MPEG-4 Visual
Профиль формата : [email protected]
Параметр BVOP формата : Нет
Параметр QPel формата : Нет
Параметр GMC формата : Без точки перехода
Параметр матрицы формата : Default (H.263)
Идентификатор кодека : XVID
Идентификатор кодека/Подсказка : XviD
Продолжительность : 1 ч. 12 м.
Битрейт : 1976 Кбит/сек
Ширина : 720 пикс.
Высота : 300 пикс.
Соотношение сторон : 2,40:1
Частота кадров : 25,000 кадр/сек
Цветовое пространство : YUV
Подвыборка цветности : 4:2:0
Битовая глубина : 8 бит
Тип развёртки : Прогрессивная
Метод сжатия : С потерями
Бит/(Пиксели*Кадры) : 0.366
Размер потока : 1,00 Гбайт (88%)
Библиотека кодирования : XviD 1.1.0 Beta2 (UTC 2005-04-04)
Аудио
Идентификатор : 1
Формат : MPEG Audio
Версия формата : Version 1
Профиль формата : Layer 3
Режим : Joint stereo
Расширение режима : MS Stereo
Идентификатор кодека : 55
Идентификатор кодека/Подсказка : MP3
Продолжительность : 1 ч. 12 м.
Вид битрейта : Постоянный
Битрейт : 256 Кбит/сек
Каналы : 2 канала
Частота : 48,0 КГц
Метод сжатия : С потерями
Размер потока : 133 Мбайт (11%)
Выравнивание : Разделение по промежуткам
Продолжительность промежутка : 40 мс. (1,00 видеокадр)
Время предзагрузки промежутка : 500 ms
Качество: DVDRip
Формат: AVI
Видео кодек: XviD
Аудио кодек: MP3
Видео: 720x300 (2.40:1), 25 fps, XviD 1.1 beta 2 (build 39) ~1975 kbps avg, 0.37 bit/pixel
Аудио: 48 kHz, MPEG Layer 3, 2 ch, ~256.00 kbps avg



Download / Скачать

Хотите скачать бесплатно? Зарегистрируйтесь на сайте (ссылка на регистрацию). Pirat.ca - самый быстрый торрент трекер в рунете!

Как скачивать  ·   Что такое торрент  ·   Рейтинг и ограничения



Последний раз редактировалось: kufre (2011-11-16 21:14), всего редактировалось 1 раз

Luzhok

Легенда

Пост 31-Окт-2011 22:35 (спустя 2 часа 32 минуты)

[Q] 

с радостью плюсуюсь
kufre,
спасибо
[Профиль]  [ЛС] 

kufre ®

Корсар

3086

Пост 31-Окт-2011 23:06 (спустя 31 минута)

[Q] 

Не за что))

_________________
[Профиль]  [ЛС] 

Пост 01-Ноя-2011 02:44 (спустя 3 часа)

Топик был перенесен из форума Наше Кино в форум Золотая коллекция

Чужая
 

Kostasmsk

Штурман

Пост 03-Мар-2012 23:23 (спустя 4 месяца 3 дня)

[Q] 

пасиба! посмотрю с удовольствием!)))
[Профиль]  [ЛС] 

ksg111ban

Гроза морей

Пост 04-Мар-2012 18:05 (спустя 18 часов)

[Q] 


_________________
[Профиль]  [ЛС] 

abc7

Гроза морей

464

Пост 07-Мар-2012 06:31 (спустя 2 дня 12 часов)

[Q] 

Спасибо!!!
[Профиль]  [ЛС] 

megamastor

2827

Пост 07-Мар-2012 22:23 (спустя 15 часов)

[Q] 

Вот это реально 33 ch
[Профиль]  [ЛС] 

UncleFather

Легенда

Пост 24-Мар-2013 20:20 (спустя 1 год)

[Q] 


_________________
Одни боялись Пью, другие - Билли Бонса, а меня... меня боялся сам Флинт
[Профиль]  [ЛС] 
Показать сообщения:    
Ответить на тему

Текущее время: Сегодня 22:05

Часовой пояс: GMT + 4



Вы не можете начинать темы
Вы не можете отвечать на сообщения
Вы не можете редактировать свои сообщения
Вы не можете удалять свои сообщения
Вы не можете голосовать в опросах
Вы не можете прикреплять файлы к сообщениям
Вы не можете скачивать файлы

▼ Вниз