ML
     
  Уважаемый Гость!
Вы можете поддержать проект и зарегистрироваться у наших партнеров - онлайн-стратегия MyLands. При регистрации в игре Вы получите код, который сможете активировать после регистрации на pirat.ca и получить 1000 дублонов.

Ваш код:
ba41f7961e0b4717aed6a401d955262223b8f6c4
 
     

Офицеры (Владимир Роговой) [1972 г., Драма, военный, BDRip, цвет]

Ответить на тему
 
Автор
Сообщение

Пост 02-Ноя-2011 12:07

[Q] 

Linnan

Офицеры
Год выпуска: 1972
Жанр: Драма, военный
Продолжительность: 1:35:25
Режиссер: Владимир Роговой
В ролях: Василий Лановой, Георгий Юматов, Алина Покровская
Описание: Судьбы двух друзей — Алексея Трофимова и Ивана Вараввы — прослеживаются на протяжении многих лет. В 20-е они вместе служили на пограничной заставе, бились с басмачами. Там они, будучи еще совсем молодыми, на всю жизнь запомнили наказ своего командира: «Есть такая профессия — родину защищать». Потом Испания, Великая Отечественная война и мирные дни. Старые друзья снова встречаются, уже став генералами.
Доп. информация: Данный релиз - восстановление раздачи со старой пиратки. Постера этой версии найти не удалось
Источник/Качество: BDRip
Формат: AVI
Видео кодек: XviD
Аудио кодек: AC3
Видео: 720x304, 1784 Kbps, 24.000 fps
Аудио: 384 Kbps, 6 ch, 48 kHz


Общее
Полное имя : F:\Загрузки торрента\Oficery.1971.RUS.BDRip.XviD.AC3.avi
Формат : AVI
Формат/Информация : Audio Video Interleave
Размер файла : 1,45 Гбайт
Продолжительность : 1 ч. 35 м.
Общий поток : 2177 Кбит/сек
Название фильма : Офицеры [Цветная версия] (1971) BDRip
Режиссёр : kingsize87 (Blu-ray Disc)
Программа кодирования : VirtualDubMod 1.5.10.2 (build 2542/release)
Правообладатель : HQCLUB (http://hqclub.net)
Примечание : 01.04.2011
Видео
Идентификатор : 0
Формат : MPEG-4 Visual
Профиль формата : Advanced [email protected]
Параметр BVOP формата : 1
Параметр QPel формата : Нет
Параметр GMC формата : Без точки перехода
Параметр матрицы формата : Выборочная
Идентификатор кодека : XVID
Идентификатор кодека/Подсказка : XviD
Продолжительность : 1 ч. 35 м.
Битрейт : 1784 Кбит/сек
Ширина : 720 пикселей
Высота : 304 пикселя
Соотношение сторон : 2,35:1
Частота кадров : 24,000 кадра/сек
Цветовое пространство : YUV
Субдискретизация насыщенности : 4:2:0
Битовая глубина : 8 бит
Тип развёртки : Прогрессивная
Метод сжатия : С потерями
Бит/(Пиксели*Кадры) : 0.340
Размер потока : 1,19 Гбайт (82%)
Библиотека кодирования : XviD 62
Аудио
Идентификатор : 1
Формат : AC-3
Формат/Информация : Audio Coding 3
Расширение режима : CM (complete main)
Идентификатор кодека : 2000
Продолжительность : 1 ч. 35 м.
Вид битрейта : Постоянный
Битрейт : 384 Кбит/сек
Каналы : 6 каналов
Расположение каналов : Front: L C R, Side: L R, LFE
Частота : 48,0 КГц
Битовая глубина : 16 бит
Метод сжатия : С потерями
Размер потока : 262 Мбайт (18%)
Выравнивание : Разделение по промежуткам
Продолжительность промежутка : 42 мс. (1,00 видеокадр)
Время предзагрузки промежутка : 500 мс.
Download / Скачать

Хотите скачать бесплатно? Зарегистрируйтесь на сайте (ссылка на регистрацию). Pirat.ca - самый быстрый торрент трекер в рунете!

Как скачивать  ·   Что такое торрент  ·   Рейтинг и ограничения



Последний раз редактировалось: Linnan (2011-11-06 18:37), всего редактировалось 1 раз

Пост 02-Ноя-2011 12:36 (спустя 29 минут)

Топик был перенесен из форума Наше Кино в форум Золотая коллекция

Чужая
 

Animasola777

Корсар

830

Пост 18-Янв-2012 13:14 (спустя 2 месяца 16 дней)

[Q] 

Фильм хороший, но... Цветной! Жесть. Не думал, что и этот раскрасят.
[Профиль]  [ЛС] 

dimkoba

35104

Пост 18-Янв-2012 23:05 (спустя 9 часов)

[Q] 

патриотичный фильм

_________________
[Профиль]  [ЛС] 

RIIDDIK

Шкипер

84

Пост 11-Фев-2012 12:00 (спустя 23 дня)

[Q] 

[Профиль]  [ЛС] 

ksg111ban

Гроза морей

Пост 04-Мар-2012 17:53 (спустя 22 дня)

[Q] 

Отличный фильм

_________________
[Профиль]  [ЛС] 

MihaMiha66

Морской Волк

Пост 13-Фев-2013 21:23 (спустя 11 месяцев 9 дней)

[Q] 

Есть такая профессия родину защищать,
история жизни людей долга и совести
[Профиль]  [ЛС] 

Dominik

Морской Волк

68

Пост 18-Апр-2014 08:47 (спустя 1 год 2 месяца)

[Q] 

Лови бочку !!!!!!!!!!

_________________
Раньше удивляло хамство, теперь удивляет вежливость!
[Профиль]  [ЛС] 

alex denver71

Флибустьер

Пост 29-Дек-2014 16:18 (спустя 8 месяцев 11 дней)

[Q] 

Автору респект!!! Всем качать!!! !!!!!!!
[Профиль]  [ЛС] 

R_O_Z_A

Морской Волк

Пост 26-Фев-2015 22:50 (спустя 1 месяц 28 дней)

[Q] 

Фильм отличный Супер! Спасибо!!!
[Профиль]  [ЛС] 

Vylan

Шкипер

Пост 10-Мар-2015 12:00 (спустя 11 дней)

[Q] 

Фильм отличный Эй, вернитесь на раздачу...
[Профиль]  [ЛС] 
Показать сообщения:    
Ответить на тему

Текущее время: Сегодня 14:46

Часовой пояс: GMT + 4



Вы не можете начинать темы
Вы не можете отвечать на сообщения
Вы не можете редактировать свои сообщения
Вы не можете удалять свои сообщения
Вы не можете голосовать в опросах
Вы не можете прикреплять файлы к сообщениям
Вы не можете скачивать файлы

▼ Вниз