ML
     
  Уважаемый Гость!
Вы можете поддержать проект и зарегистрироваться у наших партнеров - онлайн-стратегия MyLands. При регистрации в игре Вы получите код, который сможете активировать после регистрации на pirat.ca и получить 1000 дублонов.

Ваш код:
11f49771fdf057c9d51610e4a0925c3b46ddb655
 
     

Берегись автомобиля (Эльдар Рязанов) [1966 г., мелодрама, комедия, криминал, DVDRip]

Ответить на тему
 
Автор
Сообщение

Пост 03-Ноя-2011 16:48

[Q] 

kufre

Корсар

Берегись автомобиля
Год выпуска: 1966
Жанр: мелодрама, комедия, криминал
Продолжительность: 01:28:44
Режиссер: Эльдар Рязанов
В ролях: Иннокентий Смоктуновский, Олег Ефремов, Любовь Добржанская, Анатолий Папанов, Ольга Аросева, Андрей Миронов, Георгий Жжёнов, Евгений Евстигнеев, Донатас Банионис, Любовь Соколова
Описание: Эта удивительная история вполне может считаться фантастической. Скромный и застенчивый страховой агент, актер самодеятельного театра Юрий Деточкин оказывается непримиримым борцом за справедливость.
Правда, для правосудия, представляемого актером того же театра, а в миру — следователем Подберезовиковым, этот Робин Гуд представляется опасным, хитроумным, изобретательным и неуловимым преступником…
Доп. информация: Первоначально на роль Деточкина планировался Юрий Никулин, но он вместе с цирком отправился на гастроли в Южную Африку почти на полгода. В результате на роль Деточкина пробовался Олег Ефремов, но в итоге ее отдали Иннокентию Смоктуновскому, а Ефремов сыграл роль Максима Подберезовикова.
Мосфильмовская «Волга» ГАЗ-21, на которой Деточкин ушел от погони, впоследствии стала знаменитым «такси на Дубровку» Папанова (только перекрашенным) в Бриллиантовой руке и машиной-такси героя Ефремова в Трех тополях на Плющихе.
Вальс, звучащий во время погони милиционера за Деточкиным, использует музыкальную фразу из песни «Padam… Padam…». Эта мелодия композитора Андрея Петрова одна из наиболее известных и узнаваемых в мире музыки кино. В репертуаре Сергея Никитина есть песня «Стеклянный Господин» (на стихи Евгения Евтушенко) использующая мотив вальса из фильма «Берегись автомобиля».
В этом фильме Деточкин (Смоктуновский) играет Гамлета в самодеятельности. Примечательно, что Иннокентий Смоктуновский к тому времени уже блестяще сыграл Гамлета в одноименном фильме. Постановка театра самодеятельности использует другой перевод пьесы, М. Лозинского, а не Б. Пастернака.
В эпизоде, где «Волга» Деточкина во время погони задним ходом выезжает с крутой обочины на дорогу, если приглядеться, заметен трос, который вытягивает машину.
В сцене погони Деточкин, на большой скорости, справа объезжает препятствия в виде стоящего на дороге грузовика (возле него никого нет)и движущегося навстречу автобуса. В следующий миг видно, что грузовик стоит на обочине, а водитель накачивает колесо.
Когда происходит беседа Деточкина с милиционером и тот жалуется на плохой аккумулятор, бордюры то покрашены «в зебру», то нет.
В начале фильма закадровый голос автора утверждает, что не известно в каком городе происходят события. Однако, в сцене беседы в пивбаре, Деточкин произносит фразу о том, что после продажи одной из угнанных машин , он вернулся в...Москву. Следовательно, события фильма разворачиваются в Москве.
Мамой Деточкина в фильме хотели стать актрисы Зелёная и Мансурова, но наиболее убедительная проба получилась у Любови Добржанской.
Специально для съёмок Смоктуновский по настоянию режиссёра сдал на водительские права.
Полное имя : I:\ШАРА\ВИДЕО\ФИЛЬМЫ\НАШЕ\Берегись автомобиля.avi
Формат : AVI
Формат/Информация : Audio Video Interleave
Размер файла : 1,46 Гбайт
Продолжительность : 1 ч. 28 м.
Общий поток : 2349 Кбит/сек
Программа кодирования : VirtualDubMod 1.5.10.1 (build 2366/release)
Библиотека кодирования : VirtualDubMod build 2366/release
Видео
Идентификатор : 0
Формат : MPEG-4 Visual
Параметр BVOP формата : 3
Параметр QPel формата : Нет
Параметр GMC формата : Без точки перехода
Параметр матрицы формата : Default (MPEG)
Режим смешивания : Сжатый битовый поток
Идентификатор кодека : DX50
Идентификатор кодека/Подсказка : DivX 5
Продолжительность : 1 ч. 28 м.
Битрейт : 2212 Кбит/сек
Ширина : 720 пикс.
Высота : 544 пикс.
Соотношение сторон : 4:3
Частота кадров : 25,000 кадр/сек
Цветовое пространство : YUV
Подвыборка цветности : 4:2:0
Битовая глубина : 8 бит
Тип развёртки : Прогрессивная
Метод сжатия : С потерями
Бит/(Пиксели*Кадры) : 0.226
Размер потока : 1,37 Гбайт (94%)
Библиотека кодирования : DivX 6.8.3-6.8.4 (UTC 2008-06-07)
Аудио
Идентификатор : 1
Формат : MPEG Audio
Версия формата : Version 1
Профиль формата : Layer 3
Режим : Joint stereo
Расширение режима : MS Stereo
Идентификатор кодека : 55
Идентификатор кодека/Подсказка : MP3
Продолжительность : 1 ч. 28 м.
Вид битрейта : Постоянный
Битрейт : 128 Кбит/сек
Каналы : 2 канала
Частота : 44,1 КГц
Метод сжатия : С потерями
Размер потока : 81,2 Мбайт (5%)
Выравнивание : Разделение по промежуткам
Продолжительность промежутка : 40 мс. (1,00 видеокадр)
Время предзагрузки промежутка : 500 ms
Библиотека кодирования : LAME3.97a
Настройки программы : -m j -V 4 -q 2 -lowpass 17.5 -b 128
Источник/Качество: DVDRip
Формат: AVI
Видео кодек: DivX
Аудио кодек: MP3
Видео: 720x544 (1.32:1), 25 fps, DivX Codec 6.8.3 ~2211 kbps avg, 0.23 bit/pixel
Аудио: 44.100 kHz, MPEG Layer 3, 2 ch, ~128.00 kbps avg




Download / Скачать

Хотите скачать бесплатно? Зарегистрируйтесь на сайте (ссылка на регистрацию). Pirat.ca - самый быстрый торрент трекер в рунете!

Как скачивать  ·   Что такое торрент  ·   Рейтинг и ограничения



Последний раз редактировалось: kufre (2011-11-16 21:07), всего редактировалось 1 раз

Пост 04-Ноя-2011 00:19 (спустя 7 часов)

Топик был перенесен из форума Наше Кино в форум Золотая коллекция

Чужая
 

Luzhok

Легенда

Пост 04-Ноя-2011 00:26 (спустя 7 часов)

[Q] 

помогаю
kufre, спасибо
[Профиль]  [ЛС] 

CHARLI2236

1097

Пост 13-Дек-2011 14:02 (спустя 1 месяц 9 дней)

[Q] 

спасибо

_________________
[Профиль]  [ЛС] 

RIIDDIK

Шкипер

84

Пост 11-Фев-2012 12:03 (спустя 1 месяц 28 дней)

[Q] 

[Профиль]  [ЛС] 

abc7

Гроза морей

464

Пост 12-Фев-2012 12:36 (спустя 1 день)

[Q] 

Комедия всех времен!!
[Профиль]  [ЛС] 

Volodko

Корсар

Пост 19-Фев-2012 11:12 (спустя 6 дней)

[Q] 

Великое кино! Спасибо!
[Профиль]  [ЛС] 

megamastor

2827

Пост 19-Фев-2012 13:17 (спустя 2 часа 4 минуты)

[Q] 

Старое, доброе, душевное КИНО!
[Профиль]  [ЛС] 

ksg111ban

Гроза морей

Пост 04-Мар-2012 18:02 (спустя 14 дней)

[Q] 

Классика на все времена!!!!!!

_________________
[Профиль]  [ЛС] 

VaNo192

Корсар

Пост 31-Мар-2012 02:27 (спустя 26 дней)

[Q] 

[Профиль]  [ЛС] 

Dominik

Морской Волк

68

Пост 25-Апр-2014 22:13 (спустя 2 года)

[Q] 

Лови бочку
Всем качать!!!

_________________
Раньше удивляло хамство, теперь удивляет вежливость!
[Профиль]  [ЛС] 

UncleFather

Легенда

Пост 10-Май-2014 06:46 (спустя 14 дней)

[Q] 

Спасибо большое. Отличный фильм.

_________________
Одни боялись Пью, другие - Билли Бонса, а меня... меня боялся сам Флинт
[Профиль]  [ЛС] 

Trianon777

Морской Волк

Пост 20-Июл-2014 21:03 (спустя 2 месяца 10 дней)

[Q] 

Один из тех фильмов, которые можно назвать ШЕДЕВРОМ кинематографа. А музыка Андрея Петрова и куча "крылатых" фраз вообще делают картину бессмертным культовым фильмом.
Интригующий сюжет, прекрасный актерский ансамбль, непредсказуемые повороты фильма, неповторимая игра актеров - все это "Берегись автомобиля".
"СВОБОДУ Юрию Деточкину!" - и этим все сказано... Увы! Сегодняшнему кино до таких фильмов далеко.
10 из 10!!! Бессмертное кино!
[Профиль]  [ЛС] 
Показать сообщения:    
Ответить на тему

Текущее время: Сегодня 03:10

Часовой пояс: GMT + 4



Вы не можете начинать темы
Вы не можете отвечать на сообщения
Вы не можете редактировать свои сообщения
Вы не можете удалять свои сообщения
Вы не можете голосовать в опросах
Вы не можете прикреплять файлы к сообщениям
Вы не можете скачивать файлы

▼ Вниз