ML
     
  Уважаемый Гость!
Вы можете поддержать проект и зарегистрироваться у наших партнеров - онлайн-стратегия MyLands. При регистрации в игре Вы получите код, который сможете активировать после регистрации на pirat.ca и получить 1000 дублонов.

Ваш код:
6f9ab67d502902cc72a06c406977ddb589b7f39d
 
     

Самогонщики (Леонид Гайдай) [1961 г., короткометражка, комедия, DVDRip]

Ответить на тему
 
Автор
Сообщение

Пост 03-Ноя-2011 17:07

[Q] 

kufre

Корсар

Самогонщики
Год выпуска: 1961
Жанр: короткометражка, комедия
Продолжительность: 00:18:12
Режиссер: Леонид Гайдай
В ролях: Евгений Моргунов, Георгий Вицин, Юрий Никулин, Владимир Пицек
Описание: Трус, Балбес и Бывалый решают поставить на широкую ногу изготовление самогона — и снова фиаско…
Доп. информация: В фильме в котел самогонного аппарата Балбес загружает сахар. На самом деле туда следует заливать брагу.
В фильме из крана самогон льется рекой, а снег, в котором лежит змеевик — даже и не тает.
В огромной бутыли, с которой Трус слоняется по избушке, нет мутной жидкости. Просто стенки бутыли изнутри окрашены белой краской.
Избушка в которой гонят самогон в фильме, получается «внутри больше чем снаружи».
Полное имя : I:\ШАРА\ВИДЕО\ФИЛЬМЫ\НАШЕ\Самогонщики.avi
Формат : AVI
Формат/Информация : Audio Video Interleave
Размер файла : 270 Мбайт
Продолжительность : 18 м.
Общий поток : 2075 Кбит/сек
Программа кодирования : VirtualDubMod 1.5.4.1 (build 2178/release)
Библиотека кодирования : VirtualDubMod build 2178/release
Видео
Идентификатор : 0
Формат : MPEG-4 Visual
Параметр BVOP формата : 1
Параметр QPel формата : Нет
Параметр GMC формата : Без точки перехода
Параметр матрицы формата : Default (H.263)
Режим смешивания : Сжатый битовый поток
Идентификатор кодека : DX50
Идентификатор кодека/Подсказка : DivX 5
Продолжительность : 18 м.
Битрейт : 1620 Кбит/сек
Ширина : 720 пикс.
Высота : 544 пикс.
Соотношение сторон : 4:3
Частота кадров : 25,000 кадр/сек
Цветовое пространство : YUV
Подвыборка цветности : 4:2:0
Битовая глубина : 8 бит
Тип развёртки : Прогрессивная
Метод сжатия : С потерями
Бит/(Пиксели*Кадры) : 0.165
Размер потока : 211 Мбайт (78%)
Библиотека кодирования : DivX 6.4.0 (UTC 2006-10-03)
Аудио
Идентификатор : 1
Формат : AC-3
Формат/Информация : Audio Coding 3
Расширение режима : CM (complete main)
Идентификатор кодека : 2000
Продолжительность : 18 м.
Вид битрейта : Постоянный
Битрейт : 448 Кбит/сек
Каналы : 6 каналов
Расположение каналов : Front: L C R, Side: L R, LFE
Частота : 48,0 КГц
Битовая глубина : 16 бит
Метод сжатия : С потерями
Размер потока : 58,3 Мбайт (22%)
Выравнивание : Разделение по промежуткам
Продолжительность промежутка : 96 мс. (2,40 видеокадра)
Время предзагрузки промежутка : 96 ms

Источник/Качество: DVDRip
Формат: AVI
Видео кодек: DivX
Аудио кодек: AC3
Видео: 720x544 (1.32:1), 25 fps, DivX Codec 6.4 ~1620 kbps avg, 0.17 bit/pixel
Аудио: 48 kHz, AC3 Dolby Digital, 3/2 (L,C,R,l,r) + LFE ch, ~448 kbps




Download / Скачать

Хотите скачать бесплатно? Зарегистрируйтесь на сайте (ссылка на регистрацию). Pirat.ca - самый быстрый торрент трекер в рунете!

Как скачивать  ·   Что такое торрент  ·   Рейтинг и ограничения



Последний раз редактировалось: kufre (2011-12-04 00:38), всего редактировалось 2 раз(а)

Пост 04-Ноя-2011 00:23 (спустя 7 часов)

Топик был перенесен из форума Наше Кино в форум Золотая коллекция

Чужая
 

Pesok

Гроза морей

Пост 16-Ноя-2011 21:15 (спустя 13 дней)

[Q] 

супер спасибо! буду раздавать вечно

_________________
[Профиль]  [ЛС] 

CHARLI2236

1089

Пост 13-Дек-2011 13:57 (спустя 26 дней)

[Q] 

спасибо

_________________
[Профиль]  [ЛС] 

RIIDDIK

Шкипер

84

Пост 11-Фев-2012 12:08 (спустя 1 месяц 28 дней)

[Q] 

[Профиль]  [ЛС] 

abc7

Гроза морей

464

Пост 12-Фев-2012 00:08 (спустя 12 часов)

[Q] 

Спасибо!
[Профиль]  [ЛС] 

sorrr

Корсар

316

Пост 04-Июн-2012 17:26 (спустя 3 месяца 21 день)

[Q] 

Просто супер!
Спасибо!

_________________
Подпись отключена за нарушение правил форума
[Профиль]  [ЛС] 

zuum

Штурман

Пост 11-Июн-2012 15:52 (спустя 6 дней)

[Q] 

фильм класс!!!
[Профиль]  [ЛС] 

Pesok

Гроза морей

Пост 16-Ноя-2012 08:11 (спустя 5 месяцев 4 дня)

[Q] 


_________________
[Профиль]  [ЛС] 

god5

Штурман

Пост 14-Янв-2013 19:14 (спустя 1 месяц 28 дней)

[Q] 

[Профиль]  [ЛС] 

FreshMeat

Морской Волк

Пост 19-Фев-2014 15:38 (спустя 1 год 1 месяц)

[Q] 

Супер! Пиратка рулит! спасибо

_________________
[Профиль]  [ЛС] 

Vintorezov REG 39

Легенда

176

Пост 29-Ноя-2014 12:34 (спустя 9 месяцев 9 дней)

[Q] 

Огромное спасибо Лови бочку
[Профиль]  [ЛС] 
Показать сообщения:    
Ответить на тему

Текущее время: Сегодня 16:31

Часовой пояс: GMT + 4



Вы не можете начинать темы
Вы не можете отвечать на сообщения
Вы не можете редактировать свои сообщения
Вы не можете удалять свои сообщения
Вы не можете голосовать в опросах
Вы не можете прикреплять файлы к сообщениям
Вы не можете скачивать файлы

▼ Вниз