ML
     
  Уважаемый Гость!
Вы можете поддержать проект и зарегистрироваться у наших партнеров - онлайн-стратегия MyLands. При регистрации в игре Вы получите код, который сможете активировать после регистрации на pirat.ca и получить 1000 дублонов.

Ваш код:
2932e5898d0a27592397f70b82a5834d1e70ea19
 
     

Пес Барбос и необычный кросс (Леонид Гайдай) [1961 г., короткометражка, комедия, DVDRip]

Ответить на тему
 
Автор
Сообщение

Пост 03-Ноя-2011 17:53

[Q] 

kufre

Корсар

Пес Барбос и необычный кросс
Год выпуска: 1961
Жанр: короткометражка, комедия
Продолжительность: 00:10:04
Режиссер: Леонид Гайдай
В ролях: Евгений Моргунов, Юрий Никулин, Георгий Вицин
Описание: Что есть главное средство для поддержания мужской дружбы и просто для увлекательного времяпрепровождения? Правильно, это рыбалка. Трус, Балбес и Бывалый решили испытать эту радость жизни на себе, но на свою беду взяли они с собой пса Барбоса…
Доп.информация: В сцене, где впервые Бывалый достает динамитовую шашку, у нее нет огнепроводного шнура, хотя в дальнейшем он чудесным образом появляется.
В фильме огнепроводный шнур горит красным пламенем. Но на самом деле должен гореть желтым.
В сцене, где мимо троицы на лодке проплывает рыбнадзор слышен звук низкооборотистого четырехтактного двигателя серии «Л» (действительно широко применявшийся на лодках в те годы), хотя на той лодке стоит подвесной мотор «Москва».
Полное имя : I:\ШАРА\ВИДЕО\ФИЛЬМЫ\НАШЕ\Пес Барбос.avi
Формат : AVI
Формат/Информация : Audio Video Interleave
Размер файла : 150 Мбайт
Продолжительность : 10 м.
Общий поток : 2084 Кбит/сек
Программа кодирования : VirtualDubMod 1.5.4.1 (build 2178/release)
Библиотека кодирования : VirtualDubMod build 2178/release
Видео
Идентификатор : 0
Формат : MPEG-4 Visual
Параметр BVOP формата : 1
Параметр QPel формата : Нет
Параметр GMC формата : Без точки перехода
Параметр матрицы формата : Default (H.263)
Режим смешивания : Сжатый битовый поток
Идентификатор кодека : DX50
Идентификатор кодека/Подсказка : DivX 5
Продолжительность : 10 м.
Битрейт : 1629 Кбит/сек
Ширина : 720 пикс.
Высота : 544 пикс.
Соотношение сторон : 4:3
Частота кадров : 25,000 кадр/сек
Цветовое пространство : YUV
Подвыборка цветности : 4:2:0
Битовая глубина : 8 бит
Тип развёртки : Прогрессивная
Метод сжатия : С потерями
Бит/(Пиксели*Кадры) : 0.166
Размер потока : 117 Мбайт (78%)
Библиотека кодирования : DivX 6.4.0 (UTC 2006-10-03)
Аудио
Идентификатор : 1
Формат : AC-3
Формат/Информация : Audio Coding 3
Расширение режима : CM (complete main)
Идентификатор кодека : 2000
Продолжительность : 10 м.
Вид битрейта : Постоянный
Битрейт : 448 Кбит/сек
Каналы : 6 каналов
Расположение каналов : Front: L C R, Side: L R, LFE
Частота : 48,0 КГц
Битовая глубина : 16 бит
Метод сжатия : С потерями
Размер потока : 32,3 Мбайт (21%)
Выравнивание : Разделение по промежуткам
Продолжительность промежутка : 96 мс. (2,40 видеокадра)
Время предзагрузки промежутка : 96 ms
Источник/Качество: DVDRip
Формат: AVI
Видео кодек: DivX
Аудио кодек: AC3
Видео: 720x544 (1.32:1), 25 fps, DivX Codec 6.4 ~1629 kbps avg, 0.17 bit/pixel
Аудио: 48 kHz, AC3 Dolby Digital, 3/2 (L,C,R,l,r) + LFE ch, ~448 kbps



Download / Скачать

Хотите скачать бесплатно? Зарегистрируйтесь на сайте (ссылка на регистрацию). Pirat.ca - самый быстрый торрент трекер в рунете!

Как скачивать  ·   Что такое торрент  ·   Рейтинг и ограничения



Последний раз редактировалось: kufre (2011-11-16 21:09), всего редактировалось 1 раз

Пост 04-Ноя-2011 00:24 (спустя 6 часов)

Топик был перенесен из форума Наше Кино в форум Золотая коллекция

Чужая
 

CHARLI2236

1096

Пост 13-Дек-2011 14:03 (спустя 1 месяц 9 дней)

[Q] 

спасибо

_________________
[Профиль]  [ЛС] 

abc7

Гроза морей

464

Пост 11-Фев-2012 00:47 (спустя 1 месяц 28 дней)

[Q] 

Фильм реликвия комедий!
[Профиль]  [ЛС] 

ksg111ban

Гроза морей

Пост 04-Мар-2012 18:03 (спустя 22 дня)

[Q] 


_________________
[Профиль]  [ЛС] 

zuum

Штурман

Пост 11-Июн-2012 15:56 (спустя 3 месяца 6 дней)

[Q] 

фильм класс!!!!!
[Профиль]  [ЛС] 

zuum

Штурман

Пост 11-Июн-2012 15:56 (спустя 47 секунд)

[Q] 

фильм класс!!!
[Профиль]  [ЛС] 

god5

Штурман

Пост 14-Янв-2013 19:19 (спустя 7 месяцев 3 дня)

[Q] 

[Профиль]  [ЛС] 

Clive37

Лоцман

Пост 29-Ноя-2014 17:38 (спустя 1 год 10 месяцев)

[Q] 

kufre, А вот вопрос есть. В фильме звуки не переписывались? А то мне на Д.Р. подарили коллекцию фильмов с этой замечательной троицей, и во всех был "отреставрирован" звук! Проще говоря заменили старые звуки и спец эффекты на современные. Звучит пошло, мёртво, чужеродно.
[Профиль]  [ЛС] 
Показать сообщения:    
Ответить на тему

Текущее время: Сегодня 08:03

Часовой пояс: GMT + 4



Вы не можете начинать темы
Вы не можете отвечать на сообщения
Вы не можете редактировать свои сообщения
Вы не можете удалять свои сообщения
Вы не можете голосовать в опросах
Вы не можете прикреплять файлы к сообщениям
Вы не можете скачивать файлы

▼ Вниз