ML
     
  Уважаемый Гость!
Вы можете поддержать проект и зарегистрироваться у наших партнеров - онлайн-стратегия MyLands. При регистрации в игре Вы получите код, который сможете активировать после регистрации на pirat.ca и получить 1000 дублонов.

Ваш код:
9cfe162481db953a6549f32179d7b3900b8b8643
 
     

Любовь И Голуби (Владимир Меньшов) [1984 г., мелодрама, комедия, DVDRip]

Ответить на тему
 
Автор
Сообщение

Пост 03-Ноя-2011 19:23

[Q] 

kufre

Корсар

Любовь И Голуби
Год выпуска: 1984
Жанр: мелодрама, комедия
Продолжительность: 01:40:27
Режиссер: Владимир Меньшов
В ролях: Александр Михайлов, Нина Дорошина, Людмила Гурченко, Сергей Юрский, Наталья Тенякова, Янина Лисовская, Игорь Лях, Лада Сизоненко, Владимир Меньшов
Описание: Ликвидируя неисправность лебедки, Василий Кузякин получил травму и путевку на юг. Встретил роковую женщину Раису Захаровну и… вернулся Вася с курорта не к себе в деревню, а в дом Раисы Захаровны. Началась для него новая жизнь, в которой было много непонятного и интересного, но не было дома, где остались Надя, дети и голуби…
Доп. информация: Для того, чтобы в конце картины заснять «расцветающее дерево», был использован знаменитый фокус с тростью, из которой выскакивают цветы. На съёмки был приглашён фокусник, к дереву прикрепили десять подобных тростей, с первого же раза сработали семь из них — кадр был снят с первого дубля.
Часть монологов Раисы Захаровны об эзотерике и пр. из фильма была вырезана.
Съемки фильма проходили в Карелии в городе Медвежьегорске.
Во время съёмок эпизода, когда Василий выпадает из дверей своего дома в море, актёр чуть не погиб. Эпизод снимался так: актёр падал с пирса, под водой его раздевали водолазы, и он выныривал рядом с Гурченко уже в семейных трусах. Первый дубль показался режиссёру медленным, решили снять второй. Во время его съёмок, под водой, возникли проблемы с галстуком, актёр чуть не утонул, галстук пришлось разрезать. В итоге в фильм вошёл третий дубль, в котором разрезанный ранее галстук просто сшили парой стежков.
Когда Вася ночью заглядывает в окно своего дома, из телевизора звучит знаменитая фраза «В 40 лет жизнь только начинается» из фильма «Москва слезам не верит», предыдущей работы Меньшова.
По сценарию, Надежда — женщина средних лет, а баба Шура — старуха-пенсионерка. Однако актриса Нина Дорошина, исполнительница роли Надежды, на 10 лет старше Натальи Теняковой, сыгравшей бабу Шуру. На момент съёмок Дорошиной было 50 лет, а Теняковой — только 40.
Занимает по посещаемости 60-е место среди отечественных фильмов за всю историю советского кинопроката
Съёмки эпизода купания Раисы Захаровны и Василия велись в ноябре в Батуми (Грузия). Температура воды составляла 14 градусов Цельсия.
Съёмки фильма велись в Карелии, в городе Медвежьегорске, на окраине города, в доме на берегу реки Кумса.
Исполнительница роли бабы Шуры Наталья Тенякова - жена исполнителя роли дяди Мити Сергея Юрского.
Полное имя : H:\ШАРА\ВИДЕО\ФИЛЬМЫ\Н А Ш Е\Любовь И Голуби 1984.avi
Формат : AVI
Формат/Информация : Audio Video Interleave
Размер файла : 1,41 Гбайт
Продолжительность : 1 ч. 40 м.
Общий поток : 2013 Кбит/сек
Программа кодирования : Nandub v1.0rc2
Библиотека кодирования : Nandub build 1852/release
Видео
Идентификатор : 0
Формат : MPEG-4 Visual
Профиль формата : Advanced [email protected]
Параметр BVOP формата : 1
Параметр QPel формата : Нет
Параметр GMC формата : Без точки перехода
Параметр матрицы формата : Default (MPEG)
Режим смешивания : Сжатый битовый поток
Идентификатор кодека : XVID
Идентификатор кодека/Подсказка : XviD
Продолжительность : 1 ч. 40 м.
Битрейт : 1867 Кбит/сек
Ширина : 712 пикс.
Высота : 520 пикс.
Соотношение сторон : 4:3
Частота кадров : 25,000 кадр/сек
Цветовое пространство : YUV
Подвыборка цветности : 4:2:0
Битовая глубина : 8 бит
Тип развёртки : Прогрессивная
Метод сжатия : С потерями
Бит/(Пиксели*Кадры) : 0.202
Размер потока : 1,31 Гбайт (93%)
Библиотека кодирования : XviD 1.1.0 Beta2 (UTC 2005-04-04)
Аудио
Идентификатор : 1
Формат : MPEG Audio
Версия формата : Version 1
Профиль формата : Layer 3
Режим : Joint stereo
Расширение режима : MS Stereo
Идентификатор кодека : 55
Идентификатор кодека/Подсказка : MP3
Продолжительность : 1 ч. 40 м.
Вид битрейта : Переменный
Битрейт : 128 Кбит/сек
Каналы : 2 канала
Частота : 48,0 КГц
Метод сжатия : С потерями
Размер потока : 95,3 Мбайт (7%)
Выравнивание : Соединение по промежуткам
Продолжительность промежутка : 24 мс. (0,60 видеокадр)
Время предзагрузки промежутка : 133 ms
Библиотека кодирования : LAME3.96r
Настройки программы : -m j -V 4 -q 2 -lowpass 17.5 --abr 128
Источник/Качество: DVDRip
Формат: AVI
Видео кодек: XviD
Аудио кодек: MP3
Видео: 712x520 (1.37:1), 25 fps, XviD MPEG-4 ~1866 kbps avg, 0.20 bit/pixel
Аудио: 48 kHz, MPEG Layer 3, 2 ch, ~132.71 kbps avg





Download / Скачать

Хотите скачать бесплатно? Зарегистрируйтесь на сайте (ссылка на регистрацию). Pirat.ca - самый быстрый торрент трекер в рунете!

Как скачивать  ·   Что такое торрент  ·   Рейтинг и ограничения



Последний раз редактировалось: kufre (2012-04-05 23:58), всего редактировалось 2 раз(а)

Пост 04-Ноя-2011 00:33 (спустя 5 часов)

Топик был перенесен из форума Наше Кино в форум Золотая коллекция

Чужая
 

Luzhok

Легенда

Пост 04-Ноя-2011 20:49 (спустя 1 день 1 час)

[Q] 

kufre,
спасибо
[Профиль]  [ЛС] 

FetisOFF

Морской Волк

Пост 15-Дек-2011 16:42 (спустя 1 месяц 10 дней)

[Q] 

клас
[Профиль]  [ЛС] 

RIIDDIK

Шкипер

84

Пост 11-Фев-2012 12:01 (спустя 1 месяц 26 дней)

[Q] 

[Профиль]  [ЛС] 

abc7

Гроза морей

464

Пост 12-Фев-2012 12:44 (спустя 1 день)

[Q] 

[Профиль]  [ЛС] 

ksg111ban

Гроза морей

Пост 04-Мар-2012 18:01 (спустя 21 день)

[Q] 


_________________
[Профиль]  [ЛС] 

infiniti-r

Корсар

Пост 08-Авг-2012 18:19 (спустя 5 месяцев 4 дня)

[Q] 

[Профиль]  [ЛС] 

mangomery

Лоцман

Пост 07-Окт-2012 13:11 (спустя 1 месяц 29 дней)

[Q] 

Это высшая комедия.

_________________
[Профиль]  [ЛС] 

Анна 341662

Корсар

11

Пост 16-Ноя-2012 13:27 (спустя 1 месяц 9 дней)

[Q] 

[Профиль]  [ЛС] 

vit-007

Шкипер

Пост 03-Фев-2013 21:13 (спустя 2 месяца 17 дней)

[Q] 

[Профиль]  [ЛС] 

dronich74

Флибустьер

Пост 17-Сен-2013 19:02 (спустя 7 месяцев 13 дней)

[Q] 

Супер! Спасибо огромное!
[Профиль]  [ЛС] 

ment

Шкипер

Пост 31-Янв-2014 17:52 (спустя 4 месяца 13 дней)

[Q] 

фильм Супер! качайте
[Профиль]  [ЛС] 

Vintorezov REG 39

Легенда

176

Пост 29-Ноя-2014 11:02 (спустя 9 месяцев 28 дней)

[Q] 

Замечательный фильм .
[Профиль]  [ЛС] 

alex denver71

Флибустьер

Пост 12-Янв-2015 21:07 (спустя 1 месяц 13 дней)

[Q] 

Автору респект!!! Фильм: и Зачетный фильм,одно удовольствие!!! cy
[Профиль]  [ЛС] 

Незнайка

Флибустьер

Пост 12-Янв-2015 21:40 (спустя 32 минуты)

[Q] 

Супер! Лови бочку
[Профиль]  [ЛС] 

R_O_Z_A

Морской Волк

Пост 25-Фев-2015 23:39 (спустя 1 месяц 13 дней)

[Q] 

Замечательный фильм Спасибо!!!
[Профиль]  [ЛС] 

imaxim35

Лоцман

Пост 04-Июн-2016 22:41 (спустя 1 год 3 месяца)

[Q] 

Кто-нибудь, встаньте на раздачу!
[Профиль]  [ЛС] 

mb1969

Корсар

Пост 05-Июн-2016 07:44 (спустя 9 часов)

[Q] 

Самый лучший фильм!!!
[Профиль]  [ЛС] 

kinstintin

Гроза морей

Пост 12-Окт-2016 23:01 (спустя 4 месяца 7 дней)

[Q] 

Спасибо!!!
Автору респект!!!
[Профиль]  [ЛС] 

errno

Штурман

Пост Вчера 21:25 (спустя 1 месяц 25 дней)

[Q] 

отличный фильм, лучше не снимут наверно
[Профиль]  [ЛС] 
Показать сообщения:    
Ответить на тему

Текущее время: Сегодня 06:03

Часовой пояс: GMT + 4



Вы не можете начинать темы
Вы не можете отвечать на сообщения
Вы не можете редактировать свои сообщения
Вы не можете удалять свои сообщения
Вы не можете голосовать в опросах
Вы не можете прикреплять файлы к сообщениям
Вы не можете скачивать файлы

▼ Вниз