ML
     
  Уважаемый Гость!
Вы можете поддержать проект и зарегистрироваться у наших партнеров - онлайн-стратегия MyLands. При регистрации в игре Вы получите код, который сможете активировать после регистрации на pirat.ca и получить 1000 дублонов.

Ваш код:
9cfe162481db953a6549f32179d7b3900b8b8643
 
     

Начальник Чукотки (Виталий Мельников) [1966 г., драма, комедия, приключения, история, DVDRip]

Ответить на тему
 
Автор
Сообщение

Пост 05-Ноя-2011 00:17

[Q] 

kufre

Корсар

Начальник Чукотки
Год выпуска: 1966
Жанр: драма, комедия, приключения, история
Продолжительность: 01.26:08
Режиссер: Виталий Мельников
В ролях: Михаил Кононов, Алексей Грибов, Геннадий Данзанов, Николай Волков (старший), Иосиф Конопацкий, Анатолий Абрамов, Тито Ромалио, Вячеслав Романов, Алексей Кожевников, С. Голубев, Николай Кузьмин, Степан Крылов, Константин Адашевский, Михаил Васильев, Анатолий Королькевич, Георгий Куровский, О. Линд, Павел Панков, Павел Винник, Алексей Захаров, Лим-Су
Описание: 1922 год. Комиссара Глазкова посылают на Чукотку устанавливать советскую власть. По пути в Уйгунан Глазков умирает, и к месту назначения добирается только молодой писарь Алеша, который волей случая становится начальником Чукотки.
Доп. информация: Фильм стал дебютным для режиссёра Виталия Мельникова.
В 1966 году фильм посмотрели 15,7 млн зрителей.
Полное имя : I:\ШАРА\ВИДЕО\ФИЛЬМЫ\НАШЕ\Начальник Чукотки.avi
Формат : AVI
Формат/Информация : Audio Video Interleave
Размер файла : 968 Мбайт
Продолжительность : 1 ч. 26 м.
Общий поток : 1571 Кбит/сек
Программа кодирования : VirtualDubMod 1.5.10.1 (build 2366/release)
Библиотека кодирования : VirtualDubMod build 2366/release
Видео
Идентификатор : 0
Формат : MPEG-4 Visual
Профиль формата : [email protected]
Параметр BVOP формата : 2
Параметр QPel формата : Нет
Параметр GMC формата : Без точки перехода
Параметр матрицы формата : Default (H.263)
Режим смешивания : Сжатый битовый поток
Идентификатор кодека : XVID
Идентификатор кодека/Подсказка : XviD
Продолжительность : 1 ч. 26 м.
Битрейт : 1434 Кбит/сек
Ширина : 704 пикс.
Высота : 336 пикс.
Соотношение сторон : 2,095
Частота кадров : 25,000 кадр/сек
Цветовое пространство : YUV
Подвыборка цветности : 4:2:0
Битовая глубина : 8 бит
Тип развёртки : Прогрессивная
Метод сжатия : С потерями
Бит/(Пиксели*Кадры) : 0.242
Размер потока : 883 Мбайт (91%)
Библиотека кодирования : XviD 1.0.2 (UTC 2004-08-29)
Аудио
Идентификатор : 1
Формат : MPEG Audio
Версия формата : Version 1
Профиль формата : Layer 3
Режим : Joint stereo
Расширение режима : MS Stereo
Идентификатор кодека : 55
Идентификатор кодека/Подсказка : MP3
Продолжительность : 1 ч. 26 м.
Вид битрейта : Постоянный
Битрейт : 128 Кбит/сек
Каналы : 2 канала
Частота : 48,0 КГц
Метод сжатия : С потерями
Размер потока : 78,9 Мбайт (8%)
Выравнивание : Соединение по промежуткам
Продолжительность промежутка : 40 мс. (1,00 видеокадр)
Время предзагрузки промежутка : 504 ms
Источник/Качество: DVDRip
Формат: AVI
Видео кодек: XviD
Аудио кодек: MP3
Видео: 704x336 (2.10:1), 25 fps, XviD Final 1.0.2 (build 36) ~1433 kbps avg, 0.24 bit/pixel
Аудио: 48 kHz, MPEG Layer 3, 2 ch, ~128.00 kbps avg



Download / Скачать

Хотите скачать бесплатно? Зарегистрируйтесь на сайте (ссылка на регистрацию). Pirat.ca - самый быстрый торрент трекер в рунете!

Как скачивать  ·   Что такое торрент  ·   Рейтинг и ограничения



Последний раз редактировалось: kufre (2011-11-16 21:02), всего редактировалось 1 раз

Пост 05-Ноя-2011 02:59 (спустя 2 часа 42 минуты)

Топик был перенесен из форума Наше Кино в форум Золотая коллекция

Чужая
 

hroomik

Лоцман

Пост 05-Ноя-2011 03:37 (спустя 3 часа)

[Q] 

Спасибо за фильм!
[Профиль]  [ЛС] 

Pirat38rus

Корсар

Пост 02-Янв-2013 21:25 (спустя 1 год 1 месяц)

[Q] 

[Профиль]  [ЛС] 

UncleFather

Легенда

Пост 24-Мар-2013 20:18 (спустя 2 месяца 21 день)

[Q] 


_________________
Одни боялись Пью, другие - Билли Бонса, а меня... меня боялся сам Флинт
[Профиль]  [ЛС] 
Показать сообщения:    
Ответить на тему

Текущее время: Сегодня 06:06

Часовой пояс: GMT + 4



Вы не можете начинать темы
Вы не можете отвечать на сообщения
Вы не можете редактировать свои сообщения
Вы не можете удалять свои сообщения
Вы не можете голосовать в опросах
Вы не можете прикреплять файлы к сообщениям
Вы не можете скачивать файлы

▼ Вниз