ML
     
  Уважаемый Гость!
Вы можете поддержать проект и зарегистрироваться у наших партнеров - онлайн-стратегия MyLands. При регистрации в игре Вы получите код, который сможете активировать после регистрации на pirat.ca и получить 1000 дублонов.

Ваш код:
500cb7bd8d2cec9a8aba647a87ce41c4b76f06bd
 
     

Афоня (Георгий Данелия) [1975 г., драма, комедия, DVDRip]

Ответить на тему
 
Автор
Сообщение

Пост 05-Ноя-2011 01:17

[Q] 

kufre

Корсар

Афоня
Год выпуска: 1975
Жанр: драма, комедия
Продолжительность: 01:27:11
Режиссер: Георгий Данелия
В ролях: Леонид Куравлёв, Евгения Симонова, Евгений Леонов, Борислав Брондуков, Валентина Талызина, Савелий Крамаров, Владимир Басов, Николай Гринько, Нина Русланова, Нина Маслова, Раиса Куркина, Николай Парфёнов, Готлиб Ронинсон, Алексей Ванин, Капитолина Ильенко, Раднэр Муратов, Геннадий Ялович, Николай Граббе
Описание: Весело и беззаботно жил слесарь-сантехник Афанасий. Не гнушался левыми заработками, любил выпить, поволочиться за девушками. Так проходил день за днем, но однажды… О том, что случилось с Афоней, рассказывает фильм признанного мастера комедии Георгия Данелии.
Доп. информация: На главную роль претендовали три человека – польский актер Даниэль Ольбрыхский, Владимир Высоцкий и Леонид Куравлев.
Роль Федулы для актера Бронислава Брондукова стала знаковой. Актер так вошел в роль,что однажды охранники ресторана московской гостиницы, где проходили съемки, приняли его за алкаша. В перерывах между съемками Брондуков, не переодеваясь, вышел на улицу покурить и ... пропал. Кто-то из киногруппы пошел его искать и увидел, как упирающегося Брондукова с бранью выкидывают из гостиницы: «Тоже выдумал - артист! Сказали тебе, пьянь болотная: нечего тебе здесь делать!»
Многие помнят эпизод,когда Афоня «кадрит» пышногрудую девицу на танцах. Актрисе Татьяне Распутиной, чтобы увеличить грудь, решили подложить в бюстгальтер манную крупу. Грудь так «заиграла» в прозрачной блузке, что потом критики искренне восхищались этой художественной находкой.
В фильме «Афоня» состоялся кинодебют группы «Машина времени». Песня для фильма была приобретена по всем законам и спустя несколько месяцев Макаревич получил деньги, около 500 рублей, большая по тем временам сумма. На эти деньги группа купила в комиссионке магнитофон «Грюндиг», на котором музыканты записали не один хит.
Занимает по посещаемости 15-е место среди отечественных фильмов за всю историю советского кинопроката.
Полное имя : F:\ШАРА F\ФИЛЬМЫ\НАШЕ\Афоня.1975.avi
Формат : AVI
Формат/Информация : Audio Video Interleave
Размер файла : 1,46 Гбайт
Продолжительность : 1 ч. 27 м.
Общий поток : 2393 Кбит/сек
Программа кодирования : VirtualDubMod 1.5.4.1 (build 2178/release)
Библиотека кодирования : VirtualDubMod build 2178/release
Видео
Идентификатор : 0
Формат : MPEG-4 Visual
Профиль формата : Advanced [email protected]
Параметр BVOP формата : 1
Параметр QPel формата : Нет
Параметр GMC формата : Без точки перехода
Параметр матрицы формата : Выборочная
Идентификатор кодека : XVID
Идентификатор кодека/Подсказка : XviD
Продолжительность : 1 ч. 27 м.
Битрейт : 1938 Кбит/сек
Ширина : 720 пикс.
Высота : 544 пикс.
Соотношение сторон : 4:3
Частота кадров : 25,000 кадр/сек
Цветовое пространство : YUV
Подвыборка цветности : 4:2:0
Битовая глубина : 8 бит
Тип развёртки : Прогрессивная
Метод сжатия : С потерями
Бит/(Пиксели*Кадры) : 0.198
Размер потока : 1,18 Гбайт (81%)
Библиотека кодирования : XviD 1.2.0.dev47 (UTC 2006-11-01)
Аудио
Идентификатор : 1
Формат : AC-3
Формат/Информация : Audio Coding 3
Расширение режима : CM (complete main)
Идентификатор кодека : 2000
Продолжительность : 1 ч. 27 м.
Вид битрейта : Постоянный
Битрейт : 448 Кбит/сек
Каналы : 6 каналов
Расположение каналов : Front: L C R, Side: L R, LFE
Частота : 48,0 КГц
Битовая глубина : 16 бит
Метод сжатия : С потерями
Размер потока : 279 Мбайт (19%)
Выравнивание : Разделение по промежуткам
Продолжительность промежутка : 96 мс. (2,40 видеокадра)
Время предзагрузки промежутка : 96 ms
Язык : English
Источник/Качество: DVDRip
Формат: AVI
Видео кодек: XviD
Аудио кодек: AC3
Видео: 720x544 (1.32:1), 25 fps, XviD build 47 ~1938 kbps avg, 0.20 bit/pixel
Аудио: 48 kHz, AC3 Dolby Digital, 3/2 (L,C,R,l,r) + LFE ch, ~448 kbps





Download / Скачать

Хотите скачать бесплатно? Зарегистрируйтесь на сайте (ссылка на регистрацию). Pirat.ca - самый быстрый торрент трекер в рунете!

Как скачивать  ·   Что такое торрент  ·   Рейтинг и ограничения



Последний раз редактировалось: kufre (2011-11-16 21:01), всего редактировалось 1 раз

Luzhok

Легенда

Пост 05-Ноя-2011 01:45 (спустя 28 минут)

[Q] 

помогаю
kufre, спасибо
[Профиль]  [ЛС] 

Пост 05-Ноя-2011 04:13 (спустя 2 часа 28 минут)

Топик был перенесен из форума Наше Кино в форум Золотая коллекция

Чужая
 

VaNo192

Корсар

Пост 03-Фев-2012 07:00 (спустя 2 месяца 28 дней)

[Q] 

[Профиль]  [ЛС] 

RIIDDIK

Шкипер

84

Пост 10-Фев-2012 19:00 (спустя 7 дней)

[Q] 

[Профиль]  [ЛС] 

abc7

Гроза морей

464

Пост 10-Фев-2012 22:58 (спустя 3 часа)

[Q] 

[Профиль]  [ЛС] 

Kostasmsk

Штурман

Пост 03-Мар-2012 23:27 (спустя 22 дня)

[Q] 

[Профиль]  [ЛС] 

ksg111ban

Гроза морей

Пост 04-Мар-2012 17:59 (спустя 18 часов)

[Q] 


_________________
[Профиль]  [ЛС] 

Mathias13

Шкипер

Пост 05-Мар-2012 13:41 (спустя 19 часов)

[Q] 

[Профиль]  [ЛС] 

sorrr

Корсар

316

Пост 04-Июн-2012 17:25 (спустя 2 месяца 30 дней)

[Q] 

Классика... эти все сказано!

_________________
Подпись отключена за нарушение правил форума
[Профиль]  [ЛС] 

agafonkin.62

Морской Волк

Пост 13-Сен-2012 23:52 (спустя 3 месяца 9 дней)

[Q] 

огромное спасибо за кино
На форуме  [Профиль]  [ЛС] 

s.s.sveta1308

Лоцман

Пост 31-Янв-2013 21:34 (спустя 4 месяца 17 дней)

[Q] 

[Профиль]  [ЛС] 

Oxionka

Юнга

Пост 07-Апр-2013 13:16 (спустя 2 месяца 6 дней)

[Q] 

[Профиль]  [ЛС] 

megamastor

2827

Пост 25-Дек-2013 07:22 (спустя 8 месяцев 17 дней)

[Q] 

Лови бочку
[Профиль]  [ЛС] 

sokoloff62

Лоцман

Пост 11-Фев-2014 21:23 (спустя 1 месяц 17 дней)

[Q] 

Спасибо! aa
[Профиль]  [ЛС] 

Dominik

Морской Волк

68

Пост 25-Апр-2014 22:09 (спустя 2 месяца 14 дней)

[Q] 

Автору респект!!!
Лови бочку

_________________
Раньше удивляло хамство, теперь удивляет вежливость!
[Профиль]  [ЛС] 

UncleFather

Легенда

Пост 10-Май-2014 06:50 (спустя 14 дней)

[Q] 

Родственник, гони рубль! Мне Афоня должен... был..))))
Спасибо! Спасибо!!!

_________________
Одни боялись Пью, другие - Билли Бонса, а меня... меня боялся сам Флинт
[Профиль]  [ЛС] 
Показать сообщения:    
Ответить на тему

Текущее время: Сегодня 01:48

Часовой пояс: GMT + 4



Вы не можете начинать темы
Вы не можете отвечать на сообщения
Вы не можете редактировать свои сообщения
Вы не можете удалять свои сообщения
Вы не можете голосовать в опросах
Вы не можете прикреплять файлы к сообщениям
Вы не можете скачивать файлы

▼ Вниз