ML
     
  Уважаемый Гость!
Вы можете поддержать проект и зарегистрироваться у наших партнеров - онлайн-стратегия MyLands. При регистрации в игре Вы получите код, который сможете активировать после регистрации на pirat.ca и получить 1000 дублонов.

Ваш код:
0af2e2107bc9b5dd5ac2c09f9fc25e1a77c43887
 
     

Королева бензоколонки (Николай Литус, Алексей Мишурин) [1962 г., комедия, DVDRip]

Ответить на тему
 
Автор
Сообщение

Пост 05-Ноя-2011 01:45

[Q] 

kufre

Корсар

Королева бензоколонки
Год выпуска: 1962
Жанр: комедия
Продолжительность: 01:12:50
Режиссер: Николай Литус, Алексей Мишурин
В ролях: Надежда Румянцева, Андрей Сова, Алексей Кожевников, Нонна Копержинская, Юрий Белов, Владимир Белокуров, Сергей Блинников, Виктор Мягкий, Евгения Опалова, Виктор Халатов и др.
Описание: Мечта очаровательной девушки Людмилы Добрыйвечер — танцевать в балете на льду. Но… она не проходит по конкурсу, и ей приходится искать работу. После многих забавных приключений, она устраивается заправщицей на бензоколонку. Однако приключения на этом не заканчиваются…
Доп. информация: Фильм начинается с небольшой экскурсия по Киеву из окна автобуса «Киев - Ялта». Маршрут движения проходит по Крещатику, камера задерживается на Прорезной улице, гостинице «Украина» на Площади Независимости, по улицам с цветущими каштанами, Днепровской набережной, мимо строительства новых микрорайонов, парка им. Пушкина (в кадре прогуливающиеся мамаши с колясками на фоне памятника Александру Сергеевичу).
Водитель кинотрейлера, создавший ДТП на трассе, в ответ на замечание Людмилы Добрыйвечер парирует: «Каждый стиляга еще указывать будет».
На момент съёмок Надежде Румянцевой, исполняющей роль 17-летней девушки, было уже 32 года.
Поскольку основное место действия разворачивается возле АЗС, в фильме постоянно фигурируют множество автомобилей 50-60-х гг. Персонажи фильма Славка и Медведь ездят на опытных машинах: автобусе ЛАЗ-Украина-1 (1961) и БелАЗ-540 (1962), а в эпизоде с иностранцами есть настоящий Cadillac Series 62.
Эпизод с пчёлами снимался на центральной площади города Белая Церковь. В сентябре 2010 года в честь этого события на здании, напротив которого велась съёмка, была установлена мемориальная табличка с изображением исполнительницы главной роли — Надежды Румянцевой.
В фильме есть одна фундаментальная нестыковка — дело в том, что в СССР водители заправляли автомобили предприятий не за «живые» деньги, а за талоны, которые выдавались на предприятии. Поэтому, эпизод с водителем БелАЗа, который забыл заплатить за бензин, был невозможен. К тому же, в то время существовали отдельные АЗС: для физлиц, и для автомобилей предприятий. В фильме, на АЗС заправляются и те, и другие. Если предположить, что АЗС из фильма была для предприятий, то Панас Петрович и Людмила Добрыйвечер продавали бензин «налево».
Фамилия главной героини Добрыйвечер, возможно взята у украинского боксера 20-х годов, о нем вспоминал актер Б. Сичкин в книге «Я из Одессы! Здрасте!»:'Я не пропускал соревнования по боксу. Был боксёр по фамилии Добрый Вечер. Когда объявляли его фамилию, зал со смехом отвечал: «Здрасьте». У Доброго Вечера была необычайная стойка, руки внизу, никакой защиты, весь открыт, танцевал по рингу, маневрировал, и в него трудно было попасть. Хорошо защищался и хорошо контратаковал. Работал хорошо. Все его знали и любили как боксёра.'
Полное имя : F:\ШАРА F\ФИЛЬМЫ\НАШЕ\Королева бензоколонки 1962.avi
Формат : AVI
Формат/Информация : Audio Video Interleave
Размер файла : 1,36 Гбайт
Продолжительность : 1 ч. 12 м.
Общий поток : 2679 Кбит/сек
Программа кодирования : VirtualDubMod 1.5.4.1 (build 2178/release)
Библиотека кодирования : VirtualDubMod build 2178/release
Видео
Идентификатор : 0
Формат : MPEG-4 Visual
Профиль формата : Advanced [email protected]
Параметр BVOP формата : 1
Параметр QPel формата : Нет
Параметр GMC формата : Без точки перехода
Параметр матрицы формата : Выборочная
Идентификатор кодека : XVID
Идентификатор кодека/Подсказка : XviD
Продолжительность : 1 ч. 12 м.
Битрейт : 2288 Кбит/сек
Ширина : 720 пикс.
Высота : 544 пикс.
Соотношение сторон : 4:3
Частота кадров : 25,000 кадр/сек
Цветовое пространство : YUV
Подвыборка цветности : 4:2:0
Битовая глубина : 8 бит
Тип развёртки : Прогрессивная
Метод сжатия : С потерями
Бит/(Пиксели*Кадры) : 0.234
Размер потока : 1,16 Гбайт (85%)
Библиотека кодирования : XviD 1.2.0.dev47 (UTC 2006-11-01)
Аудио
Идентификатор : 1
Формат : AC-3
Формат/Информация : Audio Coding 3
Расширение режима : CM (complete main)
Идентификатор кодека : 2000
Продолжительность : 1 ч. 12 м.
Вид битрейта : Постоянный
Битрейт : 384 Кбит/сек
Каналы : 6 каналов
Расположение каналов : Front: L C R, Side: L R, LFE
Частота : 48,0 КГц
Битовая глубина : 16 бит
Метод сжатия : С потерями
Размер потока : 200 Мбайт (14%)
Выравнивание : Разделение по промежуткам
Продолжительность промежутка : 96 мс. (2,40 видеокадра)
Время предзагрузки промежутка : 96 ms
Язык : Russian
Источник/Качество: DVDRip
Формат: AVI
Видео кодек: XviD
Аудио кодек: AC3
Видео: 720x544 (1.32:1), 25 fps, XviD build 47 ~2288 kbps avg, 0.23 bit/pixel
Аудио: 48 kHz, AC3 Dolby Digital, 3/2 (L,C,R,l,r) + LFE ch, ~384 kbps



Download / Скачать

Хотите скачать бесплатно? Зарегистрируйтесь на сайте (ссылка на регистрацию). Pirat.ca - самый быстрый торрент трекер в рунете!

Как скачивать  ·   Что такое торрент  ·   Рейтинг и ограничения



Последний раз редактировалось: kufre (2011-11-16 20:58), всего редактировалось 1 раз

hroomik

Лоцман

Пост 05-Ноя-2011 03:41 (спустя 1 час 56 минут)

[Q] 

Спасибо!!!
[Профиль]  [ЛС] 

Пост 05-Ноя-2011 04:10 (спустя 28 минут)

Топик был перенесен из форума Наше Кино в форум Золотая коллекция

Чужая
 

Andreo

Лоцман

Пост 06-Ноя-2011 12:28 (спустя 1 день 8 часов)

[Q] 

встаньте на раздачу
[Профиль]  [ЛС] 

CHARLI2236

1097

Пост 13-Дек-2011 14:01 (спустя 1 месяц 7 дней)

[Q] 

спасибо

_________________
[Профиль]  [ЛС] 

RIIDDIK

Шкипер

84

Пост 11-Фев-2012 12:05 (спустя 1 месяц 28 дней)

[Q] 

[Профиль]  [ЛС] 

abc7

Гроза морей

464

Пост 12-Фев-2012 00:09 (спустя 12 часов)

[Q] 

Хорошая, добрая комедия! Спасибо!
[Профиль]  [ЛС] 

ksg111ban

Гроза морей

Пост 04-Мар-2012 17:58 (спустя 21 день)

[Q] 

Золотой фонд Отечественного кино

_________________
[Профиль]  [ЛС] 

ru$el

Лоцман

Пост 25-Мар-2012 16:46 (спустя 20 дней)

[Q] 

Комедия добрая. А на раздаче никого нет
[Профиль]  [ЛС] 

UncleFather

Легенда

Пост 24-Мар-2013 20:17 (спустя 11 месяцев)

[Q] 


_________________
Одни боялись Пью, другие - Билли Бонса, а меня... меня боялся сам Флинт
[Профиль]  [ЛС] 

viktor41

Шкипер

Пост 13-Окт-2013 19:42 (спустя 6 месяцев 19 дней)

[Q] 

Класс ! Спасибо!!!
[Профиль]  [ЛС] 

UncleFather

Легенда

Пост 26-Янв-2014 07:23 (спустя 3 месяца 12 дней)

[Q] 

Даже хочется жить в СССР, как посмотришь таких фильмов)))

_________________
Одни боялись Пью, другие - Билли Бонса, а меня... меня боялся сам Флинт
[Профиль]  [ЛС] 

ment

Шкипер

Пост 31-Янв-2014 18:06 (спустя 5 дней)

[Q] 

хиты.супер фильмы!молодость моя!
[Профиль]  [ЛС] 

Dominik

Морской Волк

68

Пост 18-Апр-2014 07:49 (спустя 2 месяца 17 дней)

[Q] 

Всем качать!!! Зуб даю... добрый Советский юмор

_________________
Раньше удивляло хамство, теперь удивляет вежливость!
[Профиль]  [ЛС] 

alex denver71

Флибустьер

Пост 16-Дек-2014 09:09 (спустя 7 месяцев 28 дней)

[Q] 

Автору респект!!! Это уж точно старая добрая комедия!!! Мне понравилось
[Профиль]  [ЛС] 

R_O_Z_A

Морской Волк

Пост 26-Фев-2015 23:08 (спустя 2 месяца 10 дней)

[Q] 

Спасибо. Класс
Автору респект!!!
[Профиль]  [ЛС] 
Показать сообщения:    
Ответить на тему

Текущее время: Сегодня 00:06

Часовой пояс: GMT + 4



Вы не можете начинать темы
Вы не можете отвечать на сообщения
Вы не можете редактировать свои сообщения
Вы не можете удалять свои сообщения
Вы не можете голосовать в опросах
Вы не можете прикреплять файлы к сообщениям
Вы не можете скачивать файлы

▼ Вниз