ML
     
  Уважаемый Гость!
Вы можете поддержать проект и зарегистрироваться у наших партнеров - онлайн-стратегия MyLands. При регистрации в игре Вы получите код, который сможете активировать после регистрации на pirat.ca и получить 1000 дублонов.

Ваш код:
73640f24f8a0f579e128ea7346fd2db2b1009143
 
     

Аты-Баты, Шли Солдаты (Леонид Быков) [1977 г., военный фильм, драма, DVDRip]

Ответить на тему
 
Автор
Сообщение

Пост 07-Ноя-2011 21:48

[Q] 

K-0-t

Морской Волк

Аты-Баты, Шли Солдаты
Год выпуска: 1977г.
Страна: СССР (Киностудия им. А. Довженко, Творческое объединение «Время»)
Жанр: военный фильм, драма
Продолжительность: 01:21:58
Режиссер: Леонид Быков
Сценарий: Борис Васильев, Кирилл Рапопорт
В ролях:
Леонид Быков — ефрейтор Святкин
Владимир Конкин — лейтенант Суслин
Елена Шанина — Кима Веленстович
Леонид Бакштаев — Константин, сын Святкина
Евгения Уралова — Анна, дочь Суслина и Кимы
Гия Авалишвили — Тенгиз Кодеридзе, сын Вано
Богдан Бенюк — рядовой Крынкин
Иван Гаврилюк — сержант Сайко, «Балтика»
Отабек Ганиев — рядовой Хабарбеков, «Хабанера»
Владимир Герасимов — младший сержант Мятников
Николай Гринько — полковник, командир Константина
Михаил Езепов — Михаил, певец, сын Мятникова
Маргарита Кошелева — Любаша, жена Константина
Борис Кудрявцев — генерал
Пётр Любешкин — Илья Иванович, тесть Константина
Виктор Мирошниченко — Фёдор Иванович Гарбузенко
Сергей Иванов — рядовой Лавкин
Леонид Марченко — Лёня, сын Лавкина
Наталья Наум — Валентина Ивановна
Вилорий Пащенко — Петрович, председатель колхоза
Николай Сектименко — рядовой Глебов
Борис Химичев — Юрий Иванович, сын Сайко
Юрий Шерстнев — племянник Глебова
Аида Юнусова — дочь «Хабанеры»
Вано Янтбелидзе — Вано Кодеридзе
Описание:
Маленькая станция Подбедня ничем не отличается от многих других мест в России. В годы Великой Отечественной здесь шли жестокие бои. А теперь сюда съезжаются сыновья и дочери тех, кто не дожил до победы.
Доп. информация:
«Аты-баты, шли солдаты» — художественный фильм, последняя режиссёрская работа 49-летнего Леонида Быкова и его последняя роль в кино. Лидер проката (1977, 7 место) — 35,8 млн зрителей.
Призы:
1977 — Государственная премия Украинской ССР им. Тараса Шевченко (за фильмы «В бой идут одни старики» и «Аты-баты, шли солдаты») режиссёру Леониду Быкову
1977 — Главный приз на Международном кинофестивале в Быстрице (ЧССР)
Источник/Качество: DVDRip
Формат: AVI
Видео кодек: XviD
Аудио кодек: AC3
Видео: 704x320 (2.20:1), 25 fps, XviD build 46, 1933 kbps avg, 0.34 bit/pixel
Аудио: 48 kHz, AC3 Dolby Digital, 3/2 (L,C,R,l,r) + LFE ch, 448 kbps
General
Complete name : E:\Фильмы\Художественные\Отечественные фильмы\Великая Отечественная война\Аты-Баты, Шли Солдаты (1976).avi
Format : AVI
Format/Info : Audio Video Interleave
File size : 1.37 GiB
Duration : 1h 21mn
Overall bit rate : 2 388 Kbps
Writing application : VirtualDubMod 1.5.4.1 (build 2178/release)
Writing library : VirtualDubMod build 2178/release
Video
ID : 0
Format : MPEG-4 Visual
Format profile : [email protected]
Format settings, BVOP : Yes
Format settings, QPel : No
Format settings, GMC : No warppoints
Format settings, Matrix : Custom
Codec ID : XVID
Codec ID/Hint : XviD
Duration : 1h 21mn
Bit rate : 1 933 Kbps
Width : 704 pixels
Height : 320 pixels
Display aspect ratio : 2.2:1
Frame rate : 25.000 fps
Resolution : 24 bits
Colorimetry : 4:2:0
Scan type : Progressive
Bits/(Pixel*Frame) : 0.343
Stream size : 1.11 GiB (81%)
Writing library : XviD 1.1.2 (UTC 2006-11-01)
Audio
ID : 1
Format : AC-3
Format/Info : Audio Coding 3
Codec ID : 2000
Duration : 1h 21mn
Bit rate mode : Constant
Bit rate : 448 Kbps
Channel(s) : 6 channels
Channel positions : Front: L C R, Surround: L R, LFE
Sampling rate : 48.0 KHz
Stream size : 263 MiB (19%)
Alignment : Split accross interleaves
Interleave, duration : 96 ms (2.40 video frames)
Interleave, preload duration : 96 ms
Download / Скачать

Хотите скачать бесплатно? Зарегистрируйтесь на сайте (ссылка на регистрацию). Pirat.ca - самый быстрый торрент трекер в рунете!

Как скачивать  ·   Что такое торрент  ·   Рейтинг и ограничения

Wolf111

57081

Пост 25-Июл-2012 19:58 (спустя 8 месяцев 17 дней)

[Q] 

[Профиль]  [ЛС] 

god5

Штурман

Пост 14-Янв-2013 19:16 (спустя 5 месяцев 19 дней)

[Q] 

[Профиль]  [ЛС] 

god5

Штурман

Пост 14-Янв-2013 19:18 (спустя 1 минута)

[Q] 

Очень хорошей фильм почему не качают и не раздают.
[Профиль]  [ЛС] 

LEMKE

Легенда

Пост 25-Мар-2014 20:22 (спустя 1 год 2 месяца)

[Q] 

Народ!
Уже раздайте кто-нибудь, вторые сутки тут зависаю... ac
[Профиль]  [ЛС] 
Показать сообщения:    
Ответить на тему

Текущее время: Сегодня 22:31

Часовой пояс: GMT + 4



Вы не можете начинать темы
Вы не можете отвечать на сообщения
Вы не можете редактировать свои сообщения
Вы не можете удалять свои сообщения
Вы не можете голосовать в опросах
Вы не можете прикреплять файлы к сообщениям
Вы не можете скачивать файлы

▼ Вниз