ML
     
  Уважаемый Гость!
Вы можете поддержать проект и зарегистрироваться у наших партнеров - онлайн-стратегия MyLands. При регистрации в игре Вы получите код, который сможете активировать после регистрации на pirat.ca и получить 1000 дублонов.

Ваш код:
a6d1ef7ff63e237add5a4c8b21d8aa937c5e9b4b
 
     

Хроника пикирующего бомбардировщика (Наум Бирман) [1967 г., военный фильм, драма, DVDRip]

Ответить на тему
 
Автор
Сообщение

Пост 08-Ноя-2011 14:52

[Q] 

K-0-t

Морской Волк

Хроника пикирующего бомбардировщика
Год выпуска: 1967г.
Страна: СССР (Ленфильм, Первое творческое объединение)
Жанр: военный фильм, драма
Продолжительность: 01:14:16
Режиссер: Наум Бирман
Сценарий: Владимир Кунин
В ролях:
Лев Вайнштейн — Вениамин Гуревич
Александр Граве — командир полка
Олег Даль — Женя Соболевский
Игорь Ефимов — начальник штаба
Виктор Ильичёв — рядовой-механик Осадчий (озвучивает Леонид Быков)
Георгий Корольчук — Митька Червоненко
Леонид Реутов — Пастухов
Геннадий Сайфулин — Сергей Архипцев
Елена Санько — Катя
Константин Сорокин — продавец военторга
Гелий Сысоев — капитан медицинской службы
Юрий Толубеев — механик Кузьмичёв
Николай Трофимов — майор, комендант аэродрома
Пётр Щербаков — замполит полка
Аркадий Вовси — дедушка Гуревича
Описание: Фильм о том, как живут и умирают люди на войне.
В далёкой мирной жизни они были учителями, музыкантами, художниками… или просто мальчишками, вчерашними школьниками. Но теперь они все — солдаты. Военные лётчики. И та прежняя их жизнь теперь приходит к ним в воспоминаниях — мечтах — снах. Как смысл, как цель всей их теперешней жизни на войне. Ради возвращения всего, что было прервано войной, отнято ею.
«Хроника пикирующего бомбардировщика» — фильм Наума Бирмана по повести В. Кунина о буднях фронтовой авиации в годы Великой Отечественной войны.
Источник/Качество: DVDRip
Формат: AVI
Видео кодек: DivX
Аудио кодек: AC3
Видео: 720x320 (2.25:1), 25 fps, DivX Codec 6.8.3, 1899 kbps avg, 0.33 bit/pixel
Аудио: 48 kHz, AC3 Dolby Digital, 2/0 (L,R) ch, 192 kbps
General
Complete name : E:\Фильмы\Художественные\Отечественные фильмы\Великая Отечественная война\Хроника пикирующего бомбардировщика (1967г. DVDRip).avi
Format : AVI
Format/Info : Audio Video Interleave
File size : 1.09 GiB
Duration : 1h 14mn
Overall bit rate : 2 101 Kbps
Writing application : VirtualDubModRus 1.5.10.2 (build 2542/release)
Writing library : VirtualDubMod build 2542/release
Video
ID : 0
Format : MPEG-4 Visual
Format settings, BVOP : Yes
Format settings, QPel : No
Format settings, GMC : No warppoints
Format settings, Matrix : Default (H.263)
Muxing mode : Packed bitstream
Codec ID : DX50
Codec ID/Hint : DivX 5
Duration : 1h 14mn
Bit rate : 1 899 Kbps
Width : 720 pixels
Height : 320 pixels
Display aspect ratio : 2.25:1
Frame rate : 25.000 fps
Resolution : 24 bits
Colorimetry : 4:2:0
Scan type : Progressive
Bits/(Pixel*Frame) : 0.330
Stream size : 1 009 MiB (90%)
Writing library : DivX 6.8.3-6.8.4 (UTC 2008-06-07)
Audio
ID : 1
Format : AC-3
Format/Info : Audio Coding 3
Codec ID : 2000
Duration : 1h 14mn
Bit rate mode : Constant
Bit rate : 192 Kbps
Channel(s) : 2 channels
Channel positions : L R
Sampling rate : 48.0 KHz
Stream size : 102 MiB (9%)
Alignment : Aligned on interleaves
Interleave, duration : 40 ms (1.00 video frame)
Interleave, preload duration : 512 ms
Download / Скачать

Хотите скачать бесплатно? Зарегистрируйтесь на сайте (ссылка на регистрацию). Pirat.ca - самый быстрый торрент трекер в рунете!

Как скачивать  ·   Что такое торрент  ·   Рейтинг и ограничения

Пост 09-Ноя-2011 04:22 (спустя 13 часов)

Топик был перенесен из форума Наше Кино в форум Золотая коллекция

Чужая
 

RIIDDIK

Шкипер

84

Пост 11-Фев-2012 12:11 (спустя 3 месяца 2 дня)

[Q] 

[Профиль]  [ЛС] 

UncleFather

Легенда

Пост 24-Мар-2013 20:20 (спустя 1 год 1 месяц)

[Q] 


_________________
Одни боялись Пью, другие - Билли Бонса, а меня... меня боялся сам Флинт
[Профиль]  [ЛС] 

UncleFather

Легенда

Пост 24-Мар-2013 20:20 (спустя 20 секунд)

[Q] 


_________________
Одни боялись Пью, другие - Билли Бонса, а меня... меня боялся сам Флинт
[Профиль]  [ЛС] 

Volodko

Корсар

Пост 12-Май-2014 20:26 (спустя 1 год 1 месяц)

[Q] 

Потрясающий фильм, признанная классика. Автору респект!!!
[Профиль]  [ЛС] 

DRUMSER

Корсар

Пост 14-Май-2014 12:50 (спустя 1 день 16 часов)

[Q] 

ДА да, и такое нужно)) Хорошо что есть такие люлди что пополняют релизами! Автору респект!!!
[Профиль]  [ЛС] 
Показать сообщения:    
Ответить на тему

Текущее время: Сегодня 13:37

Часовой пояс: GMT + 4



Вы не можете начинать темы
Вы не можете отвечать на сообщения
Вы не можете редактировать свои сообщения
Вы не можете удалять свои сообщения
Вы не можете голосовать в опросах
Вы не можете прикреплять файлы к сообщениям
Вы не можете скачивать файлы

▼ Вниз