ML
     
  Уважаемый Гость!
Вы можете поддержать проект и зарегистрироваться у наших партнеров - онлайн-стратегия MyLands. При регистрации в игре Вы получите код, который сможете активировать после регистрации на pirat.ca и получить 1000 дублонов.

Ваш код:
0ea1bf889af42fca5f67d0a391efb3400850ad7c
 
     

Сердца трёх, 5 серий из 5 (Владимир Попков) [1992 г., приключения, мелодрама, комедия, DVDRip]

Ответить на тему
 
Автор
Сообщение

Пост 08-Ноя-2011 23:44

[Q] 

leha1975

Гроза морей

Сердца трёх, 5 серий из 5
Год выпуска: 1992
Жанр: приключения, мелодрама, комедия
Продолжительность:5 х 52 260 минут
Режиссер: Владимир Попков
В ролях: Сергей Жигунов, Владимир Шевельков, Елена Хмельницкая; Игорь Кваша, Альгимантас Масюлис, Владимир Сошальский, Гедиминас Гирдвайнис, Константин Шафоренко, Рафаэль Котанджян, Сейдулла Молдаханов, Пирет Мянгел
Описание: Захватывающая приключенческая лента о романтической любви. В основе фильма лежит единственный сценарий Джека Лондона, написанный им для Голливуда в лучших традициях «фабрики грез». Здесь есть все, что привлекает зрителей всех возрастов ивкусов. Благородные разбойники, ищущие острых ощущений миллионеры, прекрасные дамы, одержимые кладоискатели, кровавые злодеи, продажные полицейские, погони, драки, интриги, ревность, пиратское золото, настоящая дружба и удивительная любовь.
Лидер кинопроката и видеопроката 1992-1994 гг.
Источник/Качество: DVDRip
Формат: AVI
Видео кодек: XviD
Аудио кодек: AC3
Видео: 720x560 (1.29:1) 25 fps XviD build 47 2173 kbps avg 0.22 bit/pixel
Аудио: 48 kHz AC3 Dolby Digital 2/0 (L,R) ch 192 kbps
Данные для всех серий одинаковые.С каждой серии сделано по три скриншота.
Mediainfo
I:\пиратка\РАЗДАЧИ-2\Сердца трёх\001.avi
General
Complete name : I:\пиратка\РАЗДАЧИ-2\Сердца трёх\001.avi
Format : AVI
Format/Info : Audio Video Interleave
File size : 867 MiB
Duration : 51mn 1s
Overall bit rate : 2 376 Kbps
Writing application : VirtualDubModRus 1.5.10.2 (build 2542/release)
Writing library : VirtualDubMod build 2542/release
Video #0
ID : 0
Format : MPEG-4 Visual
Format profile : Advanced [email protected]
Format settings, BVOP : 2
Format settings, QPel : No
Format settings, GMC : No warppoints
Format settings, Matrix : Default (MPEG)
Codec ID : XVID
Codec ID/Hint : XviD
Duration : 51mn 1s
Bit rate : 2 174 Kbps
Width : 720 pixels
Height : 560 pixels
Display aspect ratio : 1.286
Frame rate : 25.000 fps
Color space : YUV
Chroma subsampling : 4:2:0
Bit depth : 8 bits
Scan type : Progressive
Compression mode : Lossy
Bits/(Pixel*Frame) : 0.216
Stream size : 793 MiB (92%)
Writing library : XviD 1.2.0.dev47 (UTC 2006-11-01)
Audio #1
ID : 1
Format : AC-3
Format/Info : Audio Coding 3
Mode extension : CM (complete main)
Codec ID : 2000
Duration : 51mn 1s
Bit rate mode : Constant
Bit rate : 192 Kbps
Channel(s) : 2 channels
Channel positions : Front: L R
Sampling rate : 48.0 KHz
Bit depth : 16 bits
Compression mode : Lossy
Stream size : 70.1 MiB (8%)
Alignment : Split accross interleaves
Interleave, duration : 40 ms (1.00 video frame)
Interleave, preload duration : 500 ms
Download / Скачать

Хотите скачать бесплатно? Зарегистрируйтесь на сайте (ссылка на регистрацию). Pirat.ca - самый быстрый торрент трекер в рунете!

Как скачивать  ·   Что такое торрент  ·   Рейтинг и ограничения



Последний раз редактировалось: leha1975 (2011-11-09 09:44), всего редактировалось 2 раз(а)

Пост 09-Ноя-2011 20:50 (спустя 21 час)

Топик был перенесен из форума Наше Кино в форум Золотая коллекция

Чужая
 

kufre

Корсар

3086

Пост 20-Ноя-2011 21:27 (спустя 11 дней)

[Q] 

Большое спасибо за раздачу! и качество неплохое,судя по скринам..Спасибо!:)

_________________
[Профиль]  [ЛС] 

Odessa222

Штурман

Пост 12-Дек-2011 21:36 (спустя 22 дня)

[Q] 

Один из лучших фильмов детства, спасибо!
[Профиль]  [ЛС] 

dimkoba

35102

Пост 18-Янв-2012 23:12 (спустя 1 месяц 6 дней)

[Q] 

Odessa222, согласен

_________________
[Профиль]  [ЛС] 

RIIDDIK

Шкипер

84

Пост 11-Фев-2012 11:59 (спустя 23 дня)

[Q] 

[Профиль]  [ЛС] 

A.Net

Корсар

Пост 20-Фев-2012 00:35 (спустя 8 дней)

[Q] 

[Профиль]  [ЛС] 

igor81

Штурман

Пост 23-Авг-2012 08:47 (спустя 6 месяцев 3 дня)

[Q] 

[Профиль]  [ЛС] 

ivan316

Лоцман

Пост 27-Дек-2012 15:01 (спустя 4 месяца 4 дня)

[Q] 

Как добавить скоростёнки,Слабо?
[Профиль]  [ЛС] 

budilnik74

Морской Волк

Пост 02-Янв-2013 18:45 (спустя 6 дней)

[Q] 

[Профиль]  [ЛС] 

UncleFather

Легенда

Пост 24-Мар-2013 20:19 (спустя 2 месяца 22 дня)

[Q] 


_________________
Одни боялись Пью, другие - Билли Бонса, а меня... меня боялся сам Флинт
[Профиль]  [ЛС] 
Показать сообщения:    
Ответить на тему

Текущее время: Сегодня 00:37

Часовой пояс: GMT + 4



Вы не можете начинать темы
Вы не можете отвечать на сообщения
Вы не можете редактировать свои сообщения
Вы не можете удалять свои сообщения
Вы не можете голосовать в опросах
Вы не можете прикреплять файлы к сообщениям
Вы не можете скачивать файлы

▼ Вниз